[VIDEO] Лара Крофт: Дилогия / Lara Croft Tomb Raider: Dilogy (Саймон Уэст / Simon West, Ян де Бонт / Jan de Bont) [2001-2003, фэнтези, боевик, триллер, приключения, BDRip] [MP4, 960x]

 
 Статистика раздачи 
Размер: 3.98 ГБ   |  Зарегистрирован: 05 июл 2018, 20:52   |   .torrent скачан: 0 раз
Сидеров: 1  [ 0 байт/сек ]     Личеров: 0  [ 0 байт/сек ]  
  

[VIDEO] Лара Крофт: Дилогия / Lara Croft Tomb Raider: Dilogy (Саймон Уэст / Simon West, Ян де Бонт / Jan de Bont) [2001-2003, фэнтези, боевик, триллер, приключения, BDRip] [MP4, 960x]

Сообщение Nakazhu » 12 июл 2018, 19:41


Лара Крофт: Дилогия / Lara Croft Tomb Raider: Dilogy


Лара Крофт: Расхитительница гробниц / Lara Croft Tomb Raider


Год выпуска: 2001
Страна: США, Германия, Япония, Великобритания / Mutual Film Corporation, Paramount Pictures
Жанр: фэнтези, боевик, триллер, приключения
Продолжительность: 01:40:33
Перевод №1: русский Профессиональный (полное дублирование)
Перевод №2: русский Профессиональный (многоголосый, закадровый) #1
Перевод №3: русский Профессиональный (многоголосый, закадровый) #2
Перевод №4: украинский Профессиональный (многоголосый, закадровый) ICTV
Перевод №5: русский Профессиональный (двухголосый, закадровый) Гланц и Королёва
Перевод №6: русский Авторский (одноголосый, закадровый) Гаврилов
Оригинальная дорожка: Есть
Субтитры: русские (Forced), (Full), английские (Full), (SDH)
Режиссер: Саймон Уэст / Simon West
В ролях: Анджелина Джоли, Джон Войт, Айэйн Глен, Ноа Тейлор, Дэниэл Крэйг, Ричард Джонсон, Крис Барри, Джулиан Райнд-Татт, Лесли Филлипс, Роберт Филлипс и другие .
Описание: Она владеет всеми видами рукопашного боя, стреляет из любых видов оружия и способна выжить в самых экстремальных условиях. Эта девушка — дочь лорда, леди Лара Крофт. Однажды под лестницей она обнаруживает вход в секретную комнату, где находятся старинные часы с удивительным устройством внутри .
Релиз группы
Качество: BDRip / рип с Blu-ray disc 1080p (Custom)
Формат: MP4
Видео кодек: H.264
Аудио кодек: AAC
Видео: 960x402 AR:2.39 1740 kbps 23.976 fps
Аудио №1: [Russian] 2ch 48 kHz 128 kbps - [Dub] Профессиональный (полное дублирование)
Аудио №2: [Russian] 2ch 48 kHz 128 kbps - [MVO] Профессиональный (многоголосый, закадровый) #1
Аудио №3: [Russian] 2ch 48 kHz 128 kbps - [MVO] Профессиональный (многоголосый, закадровый) #2
Аудио №4: [Ukrainian] 2ch 48 kHz 128 kbps - [MVO] Профессиональный (многоголосый, закадровый) ICTV
Аудио №5: [Russian] 2ch 48 kHz 128 kbps - [DVO] Профессиональный (двухголосый, закадровый) Гланц и Королёва
Аудио №6: [Russian] 2ch 48 kHz 128 kbps - [VO] Авторский (одноголосый, закадровый) Гаврилов
Аудио №7: [English] 2ch 48 kHz 128 kbps - Original
avs [info]: 960x402p 1:1 @ 24000/1001 fps (cfr)
x264 [info]: using SAR=1/1
x264 [info]: using cpu capabilities: MMX2 SSE2Fast SSSE3 SSE4.2 AVX FMA3 BMI2 AVX2
x264 [info]: profile High, level 4.1
x264 [info]: frame I:1543 Avg QP:16.75 size: 44941
x264 [info]: frame P:34636 Avg QP:20.33 size: 15956
x264 [info]: frame B:108453 Avg QP:21.75 size: 6358
x264 [info]: consecutive B-frames: 3.9% 4.9% 7.6% 27.4% 12.4% 30.7% 4.2% 6.4% 1.1% 1.4%
x264 [info]: mb I I16..4: 11.7% 66.4% 21.9%
x264 [info]: mb P I16..4: 1.4% 12.3% 2.1% P16..4: 31.1% 36.0% 10.2% 0.0% 0.0% skip: 7.0%
x264 [info]: mb B I16..4: 0.2% 1.7% 0.3% B16..8: 34.9% 21.0% 3.3% direct: 6.4% skip:32.2% L0:44.3% L1:43.6% BI:12.0%
x264 [info]: 8x8 transform intra:75.4% inter:60.0%
x264 [info]: direct mvs spatial:97.4% temporal:2.6%
x264 [info]: coded y,uvDC,uvAC intra: 83.5% 70.3% 31.4% inter: 30.1% 16.7% 3.1%
x264 [info]: i16 v,h,dc,p: 19% 17% 14% 51%
x264 [info]: i8 v,h,dc,ddl,ddr,vr,hd,vl,hu: 14% 7% 6% 9% 13% 13% 13% 12% 13%
x264 [info]: i4 v,h,dc,ddl,ddr,vr,hd,vl,hu: 30% 8% 7% 6% 10% 11% 10% 9% 9%
x264 [info]: i8c dc,h,v,p: 33% 34% 20% 13%
x264 [info]: Weighted P-Frames: Y:18.6% UV:11.5%
x264 [info]: ref P L0: 47.5% 10.9% 18.2% 7.3% 5.6% 4.2% 3.6% 2.3% 0.4% 0.1%
x264 [info]: ref B L0: 75.4% 11.5% 5.9% 3.0% 2.3% 1.4% 0.5%
x264 [info]: ref B L1: 94.2% 5.8%
x264 [info]: kb/s:1739.34
encoded 144632 frames, 17.32 fps, 1739.34 kb/s
Код: Выделить всё
General
Complete name                            : K:\Torrents\Lara Croft Tomb Raider Dilogy.2001-2003.BDRip.x264.960x\Lara Croft Tomb Raider.2001.BDRip.x264.960x.rip by Frost O.S.mp4
Format                                   : MPEG-4
Format profile                           : 3GPP Release 6 General
Codec ID                                 : 3gg6 (isom/3gg6/mp42)
File size                                : 1.86 GiB
Duration                                 : 1 h 40 min
Overall bit rate mode                    : Variable
Overall bit rate                         : 2 650 kb/s
Encoded date                             : UTC 2018-07-12 13:37:16
Tagged date                              : UTC 2018-07-12 13:37:16
Video
ID                                       : 1
Format                                   : AVC
Format/Info                              : Advanced Video Codec
Format profile                           : High@L4.1
Format settings                          : CABAC / 8 Ref Frames
Format settings, CABAC                   : Yes
Format settings, RefFrames               : 8 frames
Codec ID                                 : avc1
Codec ID/Info                            : Advanced Video Coding
Duration                                 : 1 h 40 min
Bit rate                                 : 1 740 kb/s
Maximum bit rate                         : 5 828 kb/s
Width                                    : 960 pixels
Height                                   : 402 pixels
Display aspect ratio                     : 2.40:1
Frame rate mode                          : Constant
Frame rate                               : 23.976 (24000/1001) FPS
Color space                              : YUV
Chroma subsampling                       : 4:2:0
Bit depth                                : 8 bits
Scan type                                : Progressive
Bits/(Pixel*Frame)                       : 0.188
Stream size                              : 1.22 GiB (66%)
Writing library                          : x264 core 152 r2851 ba24899
Encoding settings                        : cabac=1 / ref=8 / deblock=1:-2:-1 / analyse=0x3:0x113 / me=umh / subme=11 / psy=1 / psy_rd=1.00:0.00 / mixed_ref=1 / me_range=32 / chroma_me=1 / trellis=2 / 8x8dct=1 / cqm=0 / deadzone=21,11 / fast_pskip=0 / chroma_qp_offset=-2 / threads=6 / lookahead_threads=1 / sliced_threads=0 / nr=0 / decimate=0 / interlaced=0 / bluray_compat=0 / constrained_intra=0 / bframes=9 / b_pyramid=2 / b_adapt=2 / b_bias=0 / direct=3 / weightb=1 / open_gop=0 / weightp=2 / keyint=250 / keyint_min=23 / scenecut=40 / intra_refresh=0 / rc=2pass / mbtree=0 / bitrate=1740 / ratetol=1.0 / qcomp=0.65 / qpmin=0 / qpmax=69 / qpstep=4 / cplxblur=20.0 / qblur=0.5 / ip_ratio=1.40 / pb_ratio=1.25 / aq=2:0.80
Encoded date                             : UTC 2018-07-10 17:43:47
Tagged date                              : UTC 2018-07-12 13:37:44
Color range                              : Limited
Color primaries                          : BT.709
Transfer characteristics                 : BT.709
Matrix coefficients                      : BT.709
Audio #1
ID                                       : 2
Format                                   : AAC
Format/Info                              : Advanced Audio Codec
Format profile                           : LC
Codec ID                                 : mp4a-40-2
Duration                                 : 1 h 40 min
Bit rate mode                            : Variable
Bit rate                                 : 128 kb/s
Maximum bit rate                         : 136 kb/s
Channel(s)                               : 2 channels
Channel positions                        : Front: L R
Sampling rate                            : 48.0 kHz
Frame rate                               : 46.875 FPS (1024 SPF)
Compression mode                         : Lossy
Stream size                              : 92.0 MiB (5%)
Title                                    : Russian / Dub
Encoded date                             : UTC 2018-07-12 11:56:05
Tagged date                              : UTC 2018-07-12 13:37:44
Audio #2
ID                                       : 3
Format                                   : AAC
Format/Info                              : Advanced Audio Codec
Format profile                           : LC
Codec ID                                 : mp4a-40-2
Duration                                 : 1 h 40 min
Bit rate mode                            : Variable
Bit rate                                 : 128 kb/s
Maximum bit rate                         : 137 kb/s
Channel(s)                               : 2 channels
Channel positions                        : Front: L R
Sampling rate                            : 48.0 kHz
Frame rate                               : 46.875 FPS (1024 SPF)
Compression mode                         : Lossy
Stream size                              : 92.0 MiB (5%)
Title                                    : Russian / MVO, #1
Encoded date                             : UTC 2018-07-12 12:07:13
Tagged date                              : UTC 2018-07-12 13:37:44
Audio #3
ID                                       : 4
Format                                   : AAC
Format/Info                              : Advanced Audio Codec
Format profile                           : LC
Codec ID                                 : mp4a-40-2
Duration                                 : 1 h 40 min
Bit rate mode                            : Variable
Bit rate                                 : 128 kb/s
Maximum bit rate                         : 136 kb/s
Channel(s)                               : 2 channels
Channel positions                        : Front: L R
Sampling rate                            : 48.0 kHz
Frame rate                               : 46.875 FPS (1024 SPF)
Compression mode                         : Lossy
Stream size                              : 92.1 MiB (5%)
Title                                    : Russian / MVO, #2
Encoded date                             : UTC 2018-07-12 12:10:07
Tagged date                              : UTC 2018-07-12 13:37:44
Audio #4
ID                                       : 5
Format                                   : AAC
Format/Info                              : Advanced Audio Codec
Format profile                           : LC
Codec ID                                 : mp4a-40-2
Duration                                 : 1 h 40 min
Bit rate mode                            : Variable
Bit rate                                 : 128 kb/s
Maximum bit rate                         : 132 kb/s
Channel(s)                               : 2 channels
Channel positions                        : Front: L R
Sampling rate                            : 48.0 kHz
Frame rate                               : 46.875 FPS (1024 SPF)
Compression mode                         : Lossy
Stream size                              : 92.1 MiB (5%)
Title                                    : Ukrainian / MVO, ICTV
Encoded date                             : UTC 2018-07-12 13:24:33
Tagged date                              : UTC 2018-07-12 13:37:44
Audio #5
ID                                       : 6
Format                                   : AAC
Format/Info                              : Advanced Audio Codec
Format profile                           : LC
Codec ID                                 : mp4a-40-2
Duration                                 : 1 h 40 min
Bit rate mode                            : Variable
Bit rate                                 : 128 kb/s
Maximum bit rate                         : 137 kb/s
Channel(s)                               : 2 channels
Channel positions                        : Front: L R
Sampling rate                            : 48.0 kHz
Frame rate                               : 46.875 FPS (1024 SPF)
Compression mode                         : Lossy
Stream size                              : 92.0 MiB (5%)
Title                                    : Russian / DVO, Glanz&Koroleva
Encoded date                             : UTC 2018-07-12 11:59:29
Tagged date                              : UTC 2018-07-12 13:37:44
Audio #6
ID                                       : 7
Format                                   : AAC
Format/Info                              : Advanced Audio Codec
Format profile                           : LC
Codec ID                                 : mp4a-40-2
Duration                                 : 1 h 40 min
Bit rate mode                            : Variable
Bit rate                                 : 128 kb/s
Maximum bit rate                         : 140 kb/s
Channel(s)                               : 2 channels
Channel positions                        : Front: L R
Sampling rate                            : 48.0 kHz
Frame rate                               : 46.875 FPS (1024 SPF)
Compression mode                         : Lossy
Stream size                              : 92.0 MiB (5%)
Title                                    : Russian / VO, Gavrilov
Encoded date                             : UTC 2018-07-12 12:13:22
Tagged date                              : UTC 2018-07-12 13:37:44
Audio #7
ID                                       : 8
Format                                   : AAC
Format/Info                              : Advanced Audio Codec
Format profile                           : LC
Codec ID                                 : mp4a-40-2
Duration                                 : 1 h 40 min
Bit rate mode                            : Variable
Bit rate                                 : 128 kb/s
Maximum bit rate                         : 136 kb/s
Channel(s)                               : 2 channels
Channel positions                        : Front: L R
Sampling rate                            : 48.0 kHz
Frame rate                               : 46.875 FPS (1024 SPF)
Compression mode                         : Lossy
Stream size                              : 92.0 MiB (5%)
Title                                    : English / Original
Encoded date                             : UTC 2018-07-12 11:52:19
Tagged date                              : UTC 2018-07-12 13:37:44
Text #1
ID                                       : 9
Format                                   : Timed Text
Codec ID                                 : tx3g
Duration                                 : 1 h 11 min
Bit rate mode                            : Variable
Bit rate                                 : 1 b/s
Stream size                              : 529 Bytes (0%)
Title                                    : Russian / Forced
Forced                                   : No
Encoded date                             : UTC 2018-07-12 13:37:43
Tagged date                              : UTC 2018-07-12 13:37:44
Text #2
ID                                       : 10
Format                                   : Timed Text
Codec ID                                 : tx3g
Duration                                 : 1 h 32 min
Bit rate mode                            : Variable
Bit rate                                 : 54 b/s
Stream size                              : 36.3 KiB (0%)
Title                                    : Russian / Full
Forced                                   : No
Encoded date                             : UTC 2018-07-12 13:37:44
Tagged date                              : UTC 2018-07-12 13:37:44
Text #3
ID                                       : 11
Format                                   : Timed Text
Codec ID                                 : tx3g
Duration                                 : 1 h 32 min
Bit rate mode                            : Variable
Bit rate                                 : 32 b/s
Stream size                              : 21.5 KiB (0%)
Title                                    : English / Full
Forced                                   : No
Encoded date                             : UTC 2018-07-12 13:37:44
Tagged date                              : UTC 2018-07-12 13:37:44
Text #4
ID                                       : 12
Format                                   : Timed Text
Codec ID                                 : tx3g
Duration                                 : 1 h 32 min
Bit rate mode                            : Variable
Bit rate                                 : 34 b/s
Stream size                              : 23.0 KiB (0%)
Title                                    : English / SDH
Forced                                   : No
Encoded date                             : UTC 2018-07-12 13:37:44
Tagged date                              : UTC 2018-07-12 13:37:44


Лара Крофт: Расхитительница гробниц 2 - Колыбель жизни / Lara Croft Tomb Raider: The Cradle of Life


#77
Год выпуска: 2003
Страна: США / Paramount Pictures
Жанр: фэнтези, боевик, триллер, приключения
Продолжительность: 01:57:21
Перевод №1: русский Профессиональный (полное дублирование)
Перевод №2: русский Профессиональный (многоголосый, закадровый)
Перевод №3: украинский Профессиональный (многоголосый, закадровый) ICTV
Перевод №4: украинский Профессиональный (многоголосый, закадровый) Новый канал
Перевод №5: русский Профессиональный (двухголосый, закадровый) Гланц и Королёва
Перевод №6: русский Авторский (одноголосый, закадровый) Гаврилов
Перевод №7: русский Авторский (одноголосый, закадровый) Живов
Оригинальная дорожка: Есть
Субтитры: русские (Forced), (Full Blu-ray), (Full Custom), английские (Full)
Режиссер: Ян де Бонт / Jan de Bont
В ролях: Анджелина Джоли, Джерард Батлер, Киаран Хиндс, Крис Барри, Ноа Тейлор, Джимон Хунсу, Тиль Швайгер, Саймон Ям, Теренс Йин, Даниэль Кальтаджироне .
Описание: Во второй серии приключений прекрасной расхитительницы гробниц Лары Крофт география действия становится ещё обширней и экзотичней. Ларе предстоит побывать в Греции, Кении, Танзании, Гонконге и Китае, и, разумеется, не для того, чтобы оценить местные красоты.
Она будет противостоять злодею-интеллектуалу Чену Ло, возглавляющему китайский преступный синдикат. Ло, искусный бизнесмен и хладнокровный убийца, замыслил украсть мифический Ящик Пандоры из ушедшего под воду храма, чтобы использовать его как оружие Судного дня…

Релиз группы
Качество: BDRip / рип с Blu-ray Disc 1080p <<LCTR_THE_CRADLE_OF_LIFE>>
Формат: MP4
Видео кодек: H.264
Аудио кодек: AAC
Видео: 960x410 AR:2.34 1550 kbps 23.976 fps
Аудио №1: [Russian] 2ch 48 kHz 128 kbps - [Dub] Профессиональный (полное дублирование)
Аудио №2: [Russian] 2ch 48 kHz 128 kbps - [MVO] Профессиональный (многоголосый, закадровый)
Аудио №4: [Ukrainian] 2ch 48 kHz 128 kbps - [MVO] Профессиональный (многоголосый, закадровый) ICTV
Аудио №4: [Ukrainian] 2ch 48 kHz 128 kbps - [MVO] Профессиональный (многоголосый, закадровый) Новый канал
Аудио №5: [Russian] 2ch 48 kHz 128 kbps - [DVO] Профессиональный (двухголосый, закадровый) Гланц и Королёва
Аудио №6: [Russian] 2ch 48 kHz 128 kbps - [VO] Авторский (одноголосый, закадровый) Гаврилов
Аудио №6: [Russian] 2ch 48 kHz 128 kbps - [VO] Авторский (одноголосый, закадровый) Живов
Аудио №7: [English] 2ch 48 kHz 128 kbps - Original
avs [info]: 960x410p 1:1 @ 24000/1001 fps (cfr)
x264 [info]: using SAR=1/1
x264 [info]: using cpu capabilities: MMX2 SSE2Fast SSSE3 SSE4.2 AVX FMA3 BMI2 AVX2
x264 [info]: profile High, level 4.1
x264 [info]: frame I:1364 Avg QP:16.92 size: 47565
x264 [info]: frame P:43782 Avg QP:20.85 size: 15241
x264 [info]: frame B:123660 Avg QP:22.62 size: 5108
x264 [info]: consecutive B-frames: 4.5% 6.9% 11.1% 26.0% 15.6% 23.5% 5.4% 4.5% 1.7% 0.8%
x264 [info]: mb I I16..4: 5.5% 75.9% 18.5%
x264 [info]: mb P I16..4: 1.1% 9.8% 1.6% P16..4: 34.7% 36.6% 9.4% 0.0% 0.0% skip: 6.9%
x264 [info]: mb B I16..4: 0.1% 1.2% 0.2% B16..8: 36.1% 18.5% 2.6% direct: 4.4% skip:36.9% L0:44.9% L1:45.6% BI: 9.4%
x264 [info]: 8x8 transform intra:78.5% inter:67.6%
x264 [info]: direct mvs spatial:97.3% temporal:2.7%
x264 [info]: coded y,uvDC,uvAC intra: 85.7% 81.1% 50.4% inter: 22.2% 20.2% 7.4%
x264 [info]: i16 v,h,dc,p: 22% 14% 4% 60%
x264 [info]: i8 v,h,dc,ddl,ddr,vr,hd,vl,hu: 7% 6% 4% 10% 16% 15% 16% 12% 14%
x264 [info]: i4 v,h,dc,ddl,ddr,vr,hd,vl,hu: 10% 7% 5% 9% 16% 14% 15% 11% 14%
x264 [info]: i8c dc,h,v,p: 36% 26% 19% 19%
x264 [info]: Weighted P-Frames: Y:18.2% UV:12.5%
x264 [info]: ref P L0: 51.8% 11.2% 15.9% 6.1% 4.6% 3.4% 3.0% 1.7% 1.7% 0.5% 0.1%
x264 [info]: ref B L0: 76.9% 10.5% 5.3% 2.6% 1.9% 1.6% 1.0% 0.3%
x264 [info]: ref B L1: 95.1% 4.9%
x264 [info]: kb/s:1549.70
encoded 168806 frames, 15.98 fps, 1549.70 kb/s
Код: Выделить всё
General
Complete name                            : K:\Torrents\Lara Croft Tomb Raider Dilogy.2001-2003.BDRip.x264.960x\Lara Croft Tomb Raider The Cradle of Life.2003.BDRip.x264.960x.rip by Frost O.S.mp4
Format                                   : MPEG-4
Format profile                           : 3GPP Release 6 General
Codec ID                                 : 3gg6 (isom/3gg6/mp42)
File size                                : 2.12 GiB
Duration                                 : 1 h 57 min
Overall bit rate mode                    : Variable
Overall bit rate                         : 2 590 kb/s
Encoded date                             : UTC 2018-07-12 14:21:38
Tagged date                              : UTC 2018-07-12 14:21:38
Video
ID                                       : 1
Format                                   : AVC
Format/Info                              : Advanced Video Codec
Format profile                           : High@L4.1
Format settings                          : CABAC / 9 Ref Frames
Format settings, CABAC                   : Yes
Format settings, RefFrames               : 9 frames
Codec ID                                 : avc1
Codec ID/Info                            : Advanced Video Coding
Duration                                 : 1 h 57 min
Bit rate                                 : 1 550 kb/s
Maximum bit rate                         : 7 133 kb/s
Width                                    : 960 pixels
Height                                   : 410 pixels
Display aspect ratio                     : 2.35:1
Frame rate mode                          : Constant
Frame rate                               : 23.976 (24000/1001) FPS
Color space                              : YUV
Chroma subsampling                       : 4:2:0
Bit depth                                : 8 bits
Scan type                                : Progressive
Bits/(Pixel*Frame)                       : 0.164
Stream size                              : 1.27 GiB (60%)
Writing library                          : x264 core 152 r2851 ba24899
Encoding settings                        : cabac=1 / ref=9 / deblock=1:-2:-1 / analyse=0x3:0x113 / me=umh / subme=11 / psy=1 / psy_rd=0.95:0.00 / mixed_ref=1 / me_range=32 / chroma_me=1 / trellis=2 / 8x8dct=1 / cqm=0 / deadzone=21,11 / fast_pskip=0 / chroma_qp_offset=-2 / threads=6 / lookahead_threads=1 / sliced_threads=0 / nr=0 / decimate=0 / interlaced=0 / bluray_compat=0 / constrained_intra=0 / bframes=9 / b_pyramid=2 / b_adapt=2 / b_bias=0 / direct=3 / weightb=1 / open_gop=0 / weightp=2 / keyint=250 / keyint_min=23 / scenecut=40 / intra_refresh=0 / rc=2pass / mbtree=0 / bitrate=1550 / ratetol=1.0 / qcomp=0.70 / qpmin=0 / qpmax=69 / qpstep=4 / cplxblur=20.0 / qblur=0.5 / ip_ratio=1.40 / pb_ratio=1.30 / aq=1:0.70
Encoded date                             : UTC 2018-07-11 18:02:47
Tagged date                              : UTC 2018-07-12 14:22:20
Color range                              : Limited
Color primaries                          : BT.709
Transfer characteristics                 : BT.709
Matrix coefficients                      : BT.709
Audio #1
ID                                       : 2
Format                                   : AAC
Format/Info                              : Advanced Audio Codec
Format profile                           : LC
Codec ID                                 : mp4a-40-2
Duration                                 : 1 h 57 min
Bit rate mode                            : Variable
Bit rate                                 : 128 kb/s
Maximum bit rate                         : 133 kb/s
Channel(s)                               : 2 channels
Channel positions                        : Front: L R
Sampling rate                            : 48.0 kHz
Frame rate                               : 46.875 FPS (1024 SPF)
Compression mode                         : Lossy
Stream size                              : 107 MiB (5%)
Title                                    : Russian / Dub
Encoded date                             : UTC 2018-07-12 12:25:53
Tagged date                              : UTC 2018-07-12 14:22:20
Audio #2
ID                                       : 3
Format                                   : AAC
Format/Info                              : Advanced Audio Codec
Format profile                           : LC
Codec ID                                 : mp4a-40-2
Duration                                 : 1 h 57 min
Bit rate mode                            : Variable
Bit rate                                 : 128 kb/s
Maximum bit rate                         : 136 kb/s
Channel(s)                               : 2 channels
Channel positions                        : Front: L R
Sampling rate                            : 48.0 kHz
Frame rate                               : 46.875 FPS (1024 SPF)
Compression mode                         : Lossy
Stream size                              : 107 MiB (5%)
Title                                    : Russian / MVO
Encoded date                             : UTC 2018-07-12 12:33:16
Tagged date                              : UTC 2018-07-12 14:22:20
Audio #3
ID                                       : 4
Format                                   : AAC
Format/Info                              : Advanced Audio Codec
Format profile                           : LC
Codec ID                                 : mp4a-40-2
Duration                                 : 1 h 57 min
Bit rate mode                            : Variable
Bit rate                                 : 128 kb/s
Maximum bit rate                         : 135 kb/s
Channel(s)                               : 2 channels
Channel positions                        : Front: L R
Sampling rate                            : 48.0 kHz
Frame rate                               : 46.875 FPS (1024 SPF)
Compression mode                         : Lossy
Stream size                              : 107 MiB (5%)
Title                                    : Ukrainian / MVO, ICTV
Encoded date                             : UTC 2018-07-12 12:48:48
Tagged date                              : UTC 2018-07-12 14:22:20
Audio #4
ID                                       : 5
Format                                   : AAC
Format/Info                              : Advanced Audio Codec
Format profile                           : LC
Codec ID                                 : mp4a-40-2
Duration                                 : 1 h 57 min
Bit rate mode                            : Variable
Bit rate                                 : 128 kb/s
Maximum bit rate                         : 135 kb/s
Channel(s)                               : 2 channels
Channel positions                        : Front: L R
Sampling rate                            : 48.0 kHz
Frame rate                               : 46.875 FPS (1024 SPF)
Compression mode                         : Lossy
Stream size                              : 107 MiB (5%)
Title                                    : Ukrainian / MVO, Novui_kanal
Encoded date                             : UTC 2018-07-12 12:52:23
Tagged date                              : UTC 2018-07-12 14:22:20
Audio #5
ID                                       : 6
Format                                   : AAC
Format/Info                              : Advanced Audio Codec
Format profile                           : LC
Codec ID                                 : mp4a-40-2
Duration                                 : 1 h 57 min
Bit rate mode                            : Variable
Bit rate                                 : 128 kb/s
Maximum bit rate                         : 137 kb/s
Channel(s)                               : 2 channels
Channel positions                        : Front: L R
Sampling rate                            : 48.0 kHz
Frame rate                               : 46.875 FPS (1024 SPF)
Compression mode                         : Lossy
Stream size                              : 107 MiB (5%)
Title                                    : Russian / DVO, Glanz&Koroleva
Encoded date                             : UTC 2018-07-12 12:29:12
Tagged date                              : UTC 2018-07-12 14:22:20
Audio #6
ID                                       : 7
Format                                   : AAC
Format/Info                              : Advanced Audio Codec
Format profile                           : LC
Codec ID                                 : mp4a-40-2
Duration                                 : 1 h 57 min
Bit rate mode                            : Variable
Bit rate                                 : 128 kb/s
Maximum bit rate                         : 134 kb/s
Channel(s)                               : 2 channels
Channel positions                        : Front: L R
Sampling rate                            : 48.0 kHz
Frame rate                               : 46.875 FPS (1024 SPF)
Compression mode                         : Lossy
Stream size                              : 107 MiB (5%)
Title                                    : Russian / VO, Gavrilov
Encoded date                             : UTC 2018-07-12 12:45:02
Tagged date                              : UTC 2018-07-12 14:22:20
Audio #7
ID                                       : 8
Format                                   : AAC
Format/Info                              : Advanced Audio Codec
Format profile                           : LC
Codec ID                                 : mp4a-40-2
Duration                                 : 1 h 57 min
Bit rate mode                            : Variable
Bit rate                                 : 128 kb/s
Maximum bit rate                         : 138 kb/s
Channel(s)                               : 2 channels
Channel positions                        : Front: L R
Sampling rate                            : 48.0 kHz
Frame rate                               : 46.875 FPS (1024 SPF)
Compression mode                         : Lossy
Stream size                              : 107 MiB (5%)
Title                                    : Russian / VO, Zhuvov
Encoded date                             : UTC 2018-07-12 12:41:55
Tagged date                              : UTC 2018-07-12 14:22:20
Audio #8
ID                                       : 9
Format                                   : AAC
Format/Info                              : Advanced Audio Codec
Format profile                           : LC
Codec ID                                 : mp4a-40-2
Duration                                 : 1 h 57 min
Bit rate mode                            : Variable
Bit rate                                 : 128 kb/s
Maximum bit rate                         : 134 kb/s
Channel(s)                               : 2 channels
Channel positions                        : Front: L R
Sampling rate                            : 48.0 kHz
Frame rate                               : 46.875 FPS (1024 SPF)
Compression mode                         : Lossy
Stream size                              : 107 MiB (5%)
Title                                    : English / Original
Encoded date                             : UTC 2018-07-12 12:16:49
Tagged date                              : UTC 2018-07-12 14:22:20
Text #1
ID                                       : 10
Format                                   : Timed Text
Codec ID                                 : tx3g
Duration                                 : 1 h 19 min
Bit rate mode                            : Variable
Bit rate                                 : 1 b/s
Stream size                              : 662 Bytes (0%)
Title                                    : Russian / Forced
Forced                                   : No
Encoded date                             : UTC 2018-07-12 14:22:20
Tagged date                              : UTC 2018-07-12 14:22:20
Text #2
ID                                       : 11
Format                                   : Timed Text
Codec ID                                 : tx3g
Duration                                 : 1 h 57 min
Bit rate mode                            : Variable
Bit rate                                 : 60 b/s
Stream size                              : 51.3 KiB (0%)
Title                                    : Russian / Full Blu-ray
Forced                                   : No
Encoded date                             : UTC 2018-07-12 14:22:20
Tagged date                              : UTC 2018-07-12 14:22:20
Text #3
ID                                       : 12
Format                                   : Timed Text
Codec ID                                 : tx3g
Duration                                 : 1 h 47 min
Bit rate mode                            : Variable
Bit rate                                 : 65 b/s
Stream size                              : 51.1 KiB (0%)
Title                                    : Russian / Full Custom
Forced                                   : No
Encoded date                             : UTC 2018-07-12 14:22:20
Tagged date                              : UTC 2018-07-12 14:22:20
Text #4
ID                                       : 13
Format                                   : Timed Text
Codec ID                                 : tx3g
Duration                                 : 1 h 47 min
Bit rate mode                            : Variable
Bit rate                                 : 40 b/s
Stream size                              : 31.5 KiB (0%)
Title                                    : English / Full
Forced                                   : No
Encoded date                             : UTC 2018-07-12 14:22:20
Tagged date                              : UTC 2018-07-12 14:22:20


 
Не забывайте говорить Спасибо. Не уходите с раздачи!   
Торрент: Зарегистрирован [05 июл 2018, 20:52] Скачать торрент
Скачать торрент
[ Размер 20.59 КБ / Просмотров 1 ]
Статус:
Проверен
 
.torrent скачан: 0 раз
Хэш: 5390835b082785eb89079306808671723956d3f6
Размер: 3.98 ГБ (4 277 791 456 байт)
Стать Автором раздачи
 
 
Раздал: 0 байт
Скачал: 0 байт
Ратио: Inf.
Сообщения: 487468
Зарегистрирован: 17 апр 2014, 13:57


  • Похожие торренты
    Ответы
    Просмотры
    Последнее сообщение

Вернуться в Видео для смартфонов и КПК

Ресурс не предоставляет электронные версии произведений, а занимается лишь коллекционированием и каталогизацией ссылок, присылаемых и публикуемых на форуме нашими читателями. Если вы являетесь правообладателем какого-либо представленного материала и не желаете чтобы ссылка на него находилась в нашем каталоге, свяжитесь с нами и мы незамедлительно удалим её. Файлы для обмена на трекере предоставлены пользователями сайта, и администрация не несёт ответственности за их содержание. Просьба не заливать файлы, защищенные авторскими правами, а также файлы нелегального содержания!
cron