Кавказская рулетка (2002) DVDRip-AVC от KORSAR

 
 Статистика раздачи 
Размер: 1.49 ГБ   |  Зарегистрирован: 12 июл 2018, 18:36   |   .torrent скачан: 0 раз
Сидеров: 1  [ 0 байт/сек ]     Личеров: 0  [ 0 байт/сек ]  
  

Кавказская рулетка (2002) DVDRip-AVC от KORSAR

Сообщение graf_t » 12 июл 2018, 19:18

Информация о фильме
Название: Кавказская рулетка
Год выпуска: 2002
Жанр: Драма, военный, криминал
Режиссер: Фёдор Попов
В ролях: Нина Усатова, Татьяна Черкасова, Сергей Гармаш, Анатолий Горячев, Татьяна Дружинина, Казбек Азади, Пилял Асхаков, Виктор Супрун, Владимир Аникин, Александр Боровиков, Александр Пивоваров

О фильме: Действие этой напряженной криминальной драмы разворачивается на фоне военных событий в Чечне. Русская девушка Анна, снайпер чеченских боевиков, и Мария, мать солдата, попавшего к ним в плен, встречаются в вагоне поезда, направляющегося в Россию. Анна пытается вывезти из зоны боевых действий грудного сына, Мария хочет заставить ее вернуть ребенка в Чечню - тогда из плена выпустят ее сына. Ни одна из матерей не может уступить, ведь речь идет о жизни и смерти их детей.



Выпущено: Россия, Творческая студия "Стелла"
Продолжительность: 01:22:46
Перевод: Не требуется

Файл
Качество: DVDRip-AVC
Видео: MPEG-4 AVC, 2186 Кбит/с, 688х444@752х444, 25.000 Кадр/с
Аудио: AC3, 6 ch, 384 Кбит/сек
Субтитры: Нет
Навигация по главам: Есть

Релиз от:



x264 [info]: frame I:677 Avg QP:16.54 size: 48257
x264 [info]: frame P:26284 Avg QP:18.01 size: 24117
x264 [info]: frame B:97189 Avg QP:19.94 size: 7164

===================================

Общее
Уникальный идентификатор : 233485212969166506393850532551149146636 (0xAFA79DC7565545B7ADB033DEE3EAD20C)
Полное имя : Kavkazskay.ruletka.2002.DVDRip-AVC.KORSAR.mkv
Формат : Matroska
Версия формата : Version 2
Размер файла : 1,49 Гбайт
Продолжительность : 1 ч. 22 м.
Общий поток : 2572 Кбит/сек
Дата кодирования : UTC 2017-06-08 00:15:49
Программа кодирования : mkvmerge v5.8.0 ('No Sleep / Pillow') built on Sep 2 2012 15:37:04
Библиотека кодирования : libebml v1.2.3 + libmatroska v1.3.0

Видео
Идентификатор : 1
Формат : AVC
Формат/Информация : Advanced Video Codec
Профиль формата : High@L4.1
Параметр CABAC формата : Да
Параметр ReFrames формата : 16 кадров
Идентификатор кодека : V_MPEG4/ISO/AVC
Продолжительность : 1 ч. 22 м.
Битрейт : 2186 Кбит/сек
Ширина : 688 пикселей
Высота : 444 пикселя
Соотношение сторон : 5:3
Режим частоты кадров : Постоянный
Частота кадров : 25,000 кадров/сек
Цветовое пространство : YUV
Субдискретизация насыщенности : 4:2:0
Битовая глубина : 8 бит
Тип развёртки : Прогрессивная
Бит/(Пиксели*Кадры) : 0.286
Размер потока : 1,24 Гбайт (83%)
Заголовок : Kavkazskay.ruletka.2002.DVDRip-AVC.KORSAR
Библиотека кодирования : x264 core 150 r2833kMod df79067
Настройки программы : cabac=1 / ref=16 / deblock=1:-2:-2 / analyse=0x3:0x133 / me=umh / subme=11 / psy=1 / fade_compensate=0.00 / psy_rd=1.00:0.10 / mixed_ref=1 / me_range=48 / chroma_me=1 / trellis=2 / 8x8dct=1 / cqm=0 / deadzone=21,11 / fast_pskip=0 / chroma_qp_offset=-3 / threads=6 / lookahead_threads=1 / sliced_threads=0 / nr=0 / decimate=0 / interlaced=0 / bluray_compat=0 / constrained_intra=0 / bframes=16 / b_pyramid=2 / b_adapt=2 / b_bias=0 / direct=3 / weightb=1 / open_gop=0 / weightp=2 / keyint=250 / keyint_min=25 / scenecut=40 / intra_refresh=0 / rc_lookahead=40 / rc=2pass / mbtree=0 / bitrate=2186 / ratetol=1.0 / qcomp=0.60 / qpmin=0 / qpmax=69 / qpstep=4 / cplxblur=20.0 / qblur=0.5 / vbv_maxrate=50000 / vbv_bufsize=62500 / nal_hrd=none / filler=0 / ip_ratio=1.40 / pb_ratio=1.30 / aq=1:1.00
Язык : Russian
Default : Да
Forced : Нет

Аудио
Идентификатор : 2
Формат : AC-3
Формат/Информация : Audio Coding 3
Параметр Endianness формата : Big
Идентификатор кодека : A_AC3
Продолжительность : 1 ч. 22 м.
Вид битрейта : Постоянный
Битрейт : 384 Кбит/сек
Каналы : 6 каналов
Расположение каналов : Front: L C R, Side: L R, LFE
Частота : 48,0 КГц
Частота кадров : 31,250 кадров/сек (1536 spf)
Битовая глубина : 16 бит
Метод сжатия : С потерями
Размер потока : 227 Мбайт (15%)
Язык : Russian
Default : Да
Forced : Нет

Меню
00:00:00.000 : ru:Глава 1
00:07:29.280 : ru:Глава 2
00:12:35.040 : ru:Глава 3
00:20:29.800 : ru:Глава 4
00:33:00.160 : ru:Глава 5
00:41:23.000 : ru:Глава 6
00:48:43.960 : ru:Глава 7
00:56:40.800 : ru:Глава 8
01:02:54.160 : ru:Глава 9
01:09:51.200 : ru:Глава 10
01:13:25.440 : ru:Глава 11
01:20:16.240 : ru:Глава 12
 
Не забывайте говорить Спасибо. Не уходите с раздачи!   
Торрент: Зарегистрирован [12 июл 2018, 18:36] Для скачивания .torrent
необходима регистрация
Или скачать с помощью
MediaGet
Статус:
Проверен
 
.torrent скачан: 0 раз
Хэш: 0ad8587f08e73a24118cd2326e1524389f19e4aa
Размер: 1.49 ГБ (1 596 344 115 байт)
Стать Автором раздачи
 
 
Раздал: 100 ГБ
Скачал: 0 байт
Ратио: Seed.
Сообщения: 55217
Зарегистрирован: 31 мар 2015, 18:04


  • Похожие торренты
    Ответы
    Просмотры
    Последнее сообщение

Вернуться в Отечественное кино

Ресурс не предоставляет электронные версии произведений, а занимается лишь коллекционированием и каталогизацией ссылок, присылаемых и публикуемых на форуме нашими читателями. Если вы являетесь правообладателем какого-либо представленного материала и не желаете чтобы ссылка на него находилась в нашем каталоге, свяжитесь с нами и мы незамедлительно удалим её. Файлы для обмена на трекере предоставлены пользователями сайта, и администрация не несёт ответственности за их содержание. Просьба не заливать файлы, защищенные авторскими правами, а также файлы нелегального содержания!
cron