Дома для животных / Animal Cribs (Кристина Уэйд / Christina Wade) [2017, Документальный, SATRip]

 
 Статистика раздачи 
Размер: 4.87 ГБ   |  Зарегистрирован: 12 июл 2018, 15:56   |   .torrent скачан: 0 раз
Сидеров: 1  [ 0 байт/сек ]     Личеров: 0  [ 0 байт/сек ]  
  

Дома для животных / Animal Cribs (Кристина Уэйд / Christina Wade) [2017, Документальный, SATRip]

Сообщение Nakazhu » 12 июл 2018, 19:10

Дома для животных / Animal Cribs
Дата/Год выпуска: 2017
Страна: США
Жанр: Документальный
Продолжительность: 9 х ~ 00:43:30
Перевод: Студийный (одноголосый закадровый)
Русские субтитры: нет
Режиссер: Кристина Уэйд / Christina Wade
Телеканал: Анимал планет
Описание: Дизайнер и друг зверей Антонио Баллаторе предлагает владельцам домашних животных свое оригинальное и творческое видение организации жилого пространства. Антонио вместе с проект-менеджером Грейс и верным другом - бульдогом по кличке Чуи - превращают унылые дома и безликие дворы в функциональное, стильное жильё как для питомцев, так и для их хозяев. Настоящий профессионал своего дела Антонио устраивает жизнь клиентов и их четвероногих, крылатых и чешуйчатых любимцев. Зоны в доме, благоустроенные специально для животных, полностью преображают жилище, делают его уютным и удобным для всех. Это образец того, до чего можно дойти, если ставить жизнь домашних любимцев на первое место (раньше про таких говорили "с жиру бесятся"). С другой стороны: наши животные помогают превратить обычное жилье в уютный дом и в этом превращении не обойтись без помощи эксперта.
Доп. информация: от 12 лет
Сэмпл: https://www.sendspace.com/file/pz420y
качество: SATRip
формат: AVI
Видео: XviD, 720 х 400 пикс, ~ 1600 Кбит/сек, 25,0 кадр/сек, 0.222 Бит/(Пиксели*Кадры)
Аудио: MP3, 160 Кбит/сек, 48,0 КГц, 2 канала
Сезон 1. 1-я серия - "Кошкин дом"
Дизайнер Антонио Баллаторе и его команда строят дом на дереве специально для кошек, соединенный с гостиной, так чтобы Тэффи и её 10-летняя хозяйка весело проводили время.
Сезон 1. 2-я серия - "Полна горница зверей"
Антонио преображает тесный дом для двух кошек и спасенной собаки, оборудует для них специальные отсеки в мебели и шестиметровую стену, по которой можно лазать.
Сезон 1. 3-я серия - "Двор мечты"
Антонио превращает полный опасностей двор в комфортное для содержания собаки место. Команда устанавливает питьевой фонтан с нажимной педалью и специальную кормушку.
Сезон 1. 4-я серия - "Футбольный дворец для щенков"
Антонио помогает служебной собаке исправить плохие привычки и превращает прачечную в СПА. А так же команда создает собачий рай, где можно поиграть в футбол.
5-я серия - "Пещера-люкс"
Антонио преображает подвал, где живет больше 20 рептилий, млекопитающих и птиц. Команда строит необычные террариумы и удобные пристанища для других питомцев
Сезон 1. 6-я серия - "Апгрейд для слепой собаки"
Антонио с командой делают территорию горного домика более безопасной для пожилой слепой собаки. А внутри дома они обустраивают для неё комнату в японском стиле.
Сезон 1. 7-я серия - "Улетный дворец для попугаев"
Антонио переделывает дом пары и 23 попугаев. Команда строит вольер, где птицы смогут свободно летать.
Сезон 1. 8-я серия - "Сумасшедший зверинец"
Антонио делится своим видением дизайна с семьей Сандерсов, которым нужна помощь с организацией пространства для кроликов, хорьков, кошек и собак.
Сезон 1. 9-я серия - "Лучшие проекты"
Антонио Баллаторе рассказывает о невероятных домах для животных, которые послужили ему вдохновением.
Код: Выделить всё
для одной серии, остальные серии аналогичны:
Общее
Полное имя                               : C:\фильмы\02 возможно для раздачи\Дома для животных 2017г (9 серий из 9)\Дома для животных 2017г\2серия.avi
Формат                                   : AVI
Формат/Информация                        : Audio Video Interleave
Размер файла                             : 548 Мбайт
Продолжительность                        : 43 м.
Общий поток                              : 1771 Кбит/сек
Видео
Идентификатор                            : 0
Формат                                   : MPEG-4 Visual
Профиль формата                          : Advanced Simple@L4
Параметр BVOP формата                    : Нет
Параметр QPel формата                    : Нет
Параметр GMC формата                     : Без точки перехода
Параметр матрицы формата                 : Default (H.263)
Идентификатор кодека                     : XVID
Идентификатор кодека/Подсказка           : XviD
Продолжительность                        : 43 м.
Битрейт                                  : 1602 Кбит/сек
Ширина                                   : 720 пикселей
Высота                                   : 400 пикселей
Соотношение сторон                       : 16:9
Частота кадров                           : 25,000 кадров/сек
Цветовое пространство                    : YUV
Субдискретизация насыщенности            : 4:2:0
Битовая глубина                          : 8 бит
Тип развёртки                            : Прогрессивная
Метод сжатия                             : С потерями
Бит/(Пиксели*Кадры)                      : 0.222
Размер потока                            : 495 Мбайт (90%)
Аудио
Идентификатор                            : 1
Формат                                   : MPEG Audio
Версия формата                           : Version 1
Профиль формата                          : Layer 3
Идентификатор кодека                     : 55
Идентификатор кодека/Подсказка           : MP3
Продолжительность                        : 43 м.
Продолжительность оригинала              : 43 м.
Вид битрейта                             : Постоянный
Битрейт                                  : 160 Кбит/сек
Каналы                                   : 2 канала
Частота                                  : 48,0 КГц
Метод сжатия                             : С потерями
Размер потока                            : 49,5 Мбайт (9%)
Выравнивание                             : Соединение по промежуткам
Продолжительность промежутка             : 40  мс. (1,00 видеокадр)

пока нет
телепередача по телеканалу Анимал планет
 
Не забывайте говорить Спасибо. Не уходите с раздачи!   
Торрент: Зарегистрирован [12 июл 2018, 15:56] Скачать торрент
Скачать торрент
[ Размер 13.11 КБ / Просмотров 2 ]
Статус:
Проверен
 
.torrent скачан: 0 раз
Хэш: 7bb0b120f0d0e0ad4281fa7217af50b82f85ddeb
Размер: 4.87 ГБ (5 226 754 182 байт)
Стать Автором раздачи
 
 
Раздал: 0 байт
Скачал: 0 байт
Ратио: Inf.
Сообщения: 487468
Зарегистрирован: 17 апр 2014, 13:57


  • Похожие торренты
    Ответы
    Просмотры
    Последнее сообщение

Вернуться в Документальные фильмы и телепередачи

Ресурс не предоставляет электронные версии произведений, а занимается лишь коллекционированием и каталогизацией ссылок, присылаемых и публикуемых на форуме нашими читателями. Если вы являетесь правообладателем какого-либо представленного материала и не желаете чтобы ссылка на него находилась в нашем каталоге, свяжитесь с нами и мы незамедлительно удалим её. Файлы для обмена на трекере предоставлены пользователями сайта, и администрация не несёт ответственности за их содержание. Просьба не заливать файлы, защищенные авторскими правами, а также файлы нелегального содержания!
cron