Счастливый номер / #Lucky Number (Брендан Мерфи / Brendan Gabriel Murphy) [2015, США, комедия, DVDRip] MVO (МАТЧ!) + Original Eng

 
 Статистика раздачи 
Размер: 1.45 ГБ   |  Зарегистрирован: 07 июл 2018, 16:53   |   .torrent скачан: 0 раз
Сидеров: 1  [ 0 байт/сек ]     Личеров: 0  [ 0 байт/сек ]  
  

Счастливый номер / #Lucky Number (Брендан Мерфи / Brendan Gabriel Murphy) [2015, США, комедия, DVDRip] MVO (МАТЧ!) + Original Eng

Сообщение Nakazhu » 12 июл 2018, 18:56

Счастливый номер / #Lucky Number
Страна: США
Жанр: комедия
Год выпуска: 2015
Продолжительность: 01:19:37
Перевод: Профессиональный (многоголосый закадровый) МАТЧ!
Субтитры: нет
Оригинальная аудиодорожка: английский
Режиссер: Брендан Мерфи / Brendan Gabriel Murphy
В ролях: Том Пелфри
Натали Холл
Метод Мэн
Малкольм Гудвин
Джозеф Руссо
Милена Гович
Carme Boixadera
Лорен Франческа
Присцилла Лопес
Роберт Бог
Описание: Честолюбивый и амбициозный спортивный обозреватель из Нью-Йорка считает, что его жизнь не совсем удалась. Он слишком медленно продвигается по карьерной лестнице. У него завышенные требования к себе и окружающим, а все юношеские мечты никак не хотят воплощаться в действительность. И тут он случайно узнает старый телефонный номер своего кумира — всемирно известного баскетболиста. Будет ли эта находка счастливым пропуском в новую жизнь или дорогой к саморазрушению?
Доп. информация: На телеканале вырезали несколько фраз - здесь вставлена любительская озвучка Синема УС
Сэмпл: http://multi-up.com/1203231
Качество видео: DVDRip
Формат видео: AVI
Видео: MPEG4, XviD, 720x400 (16:9), 23.976 fps, 1 946 Kbps (0.282 bit/pixel)
Аудио: AC-3, 48.0 KHz, 2 ch, 192 Kbps, CBR - русский
Аудио 2: AC-3, 48.0 KHz, 6 ch, 448 Kbps, CBR - английский
Код: Выделить всё
Общее
Полное имя                               : M:\Счастливый номер.avi
Формат                                   : AVI
Формат/Информация                        : Audio Video Interleave
Размер файла                             : 1,45 Гбайт
Продолжительность                        : 1 ч. 19 м.
Общий поток                              : 2600 Кбит/сек
Название фильма                          : Счастливый номер / #Lucky Number (2015)
Программа кодирования                    : VirtualDubMod 1.5.10.2 (build 2540/release)
Библиотека кодирования                   : VirtualDubMod build 2540/release
Видео
Идентификатор                            : 0
Формат                                   : MPEG-4 Visual
Профиль формата                          : Advanced Simple@L5
Настройки формата                        : BVOP2
Параметр BVOP формата                    : 2
Параметр QPel формата                    : Нет
Параметр GMC формата                     : Без точки перехода
Параметр матрицы формата                 : Default (H.263)
Идентификатор кодека                     : XVID
Идентификатор кодека/Подсказка           : XviD
Продолжительность                        : 1 ч. 19 м.
Битрейт                                  : 1946 Кбит/сек
Ширина                                   : 720 пикселей
Высота                                   : 400 пикселей
Соотношение сторон                       : 16:9
Частота кадров                           : 23,976 (24000/1001) кадра/сек
Цветовое пространство                    : YUV
Субдискретизация насыщенности            : 4:2:0
Битовая глубина                          : 8 бит
Тип развёртки                            : Прогрессивная
Метод сжатия                             : С потерями
Бит/(Пиксели*Кадры)                      : 0.282
Размер потока                            : 1,08 Гбайт (75%)
Библиотека кодирования                   : XviD 67
Аудио #1
Идентификатор                            : 1
Формат                                   : AC-3
Формат/Информация                        : Audio Coding 3
Идентификатор кодека                     : 2000
Продолжительность                        : 1 ч. 19 м.
Вид битрейта                             : Постоянный
Битрейт                                  : 192 Кбит/сек
Каналы                                   : 2 канала
Расположение каналов                     : Front: L R
Частота                                  : 48,0 КГц
Частота кадров                           : 31,250 кадров/сек (1536 SPF)
Битовая глубина                          : 16 бит
Метод сжатия                             : С потерями
Размер потока                            : 109 Мбайт (7%)
Выравнивание                             : Разделение по промежуткам
Продолжительность промежутка             : 42  мс. (1,00 видеокадр)
Время предзагрузки промежутка            : 500  мс.
Заголовок                                : Профессиональный (многоголосый, закадровый) МАТЧ!
ServiceKind/String                       : Complete Main
Аудио #2
Идентификатор                            : 2
Формат                                   : AC-3
Формат/Информация                        : Audio Coding 3
Идентификатор кодека                     : 2000
Продолжительность                        : 1 ч. 19 м.
Вид битрейта                             : Постоянный
Битрейт                                  : 448 Кбит/сек
Каналы                                   : 6 каналов
Расположение каналов                     : Front: L C R, Side: L R, LFE
Частота                                  : 48,0 КГц
Частота кадров                           : 31,250 кадров/сек (1536 SPF)
Битовая глубина                          : 16 бит
Метод сжатия                             : С потерями
Размер потока                            : 255 Мбайт (17%)
Выравнивание                             : Разделение по промежуткам
Продолжительность промежутка             : 42  мс. (1,00 видеокадр)
Время предзагрузки промежутка            : 500  мс.
Заголовок                                : Английский
ServiceKind/String                       : Complete Main

Торрент перезалит 12.07.18 - заменен рип
 
Не забывайте говорить Спасибо. Не уходите с раздачи!   
Торрент: Зарегистрирован [07 июл 2018, 16:53] Для скачивания .torrent
необходима регистрация
Или скачать с помощью
MediaGet
Статус:
Проверен
 
.torrent скачан: 0 раз
Хэш: f3752142a5f911bec8a2e4cad81bb1b8a9bf393b
Размер: 1.45 ГБ (1 553 022 976 байт)
Стать Автором раздачи
 
 
Раздал: 0 байт
Скачал: 0 байт
Ратио: Inf.
Сообщения: 486962
Зарегистрирован: 17 апр 2014, 13:57


  • Похожие торренты
    Ответы
    Просмотры
    Последнее сообщение

Вернуться в Зарубежные фильмы 2011 - 2015 года

Ресурс не предоставляет электронные версии произведений, а занимается лишь коллекционированием и каталогизацией ссылок, присылаемых и публикуемых на форуме нашими читателями. Если вы являетесь правообладателем какого-либо представленного материала и не желаете чтобы ссылка на него находилась в нашем каталоге, свяжитесь с нами и мы незамедлительно удалим её. Файлы для обмена на трекере предоставлены пользователями сайта, и администрация не несёт ответственности за их содержание. Просьба не заливать файлы, защищенные авторскими правами, а также файлы нелегального содержания!
cron