Железные ворота (Каирский вокзал) / Bab al-Hadid (Cairo Station) (Юсеф Шахин / Youssef Chahine) [1958, Египет, Драма, криминал, DVDRip] VO ((Nastia)) + Sub Rus

 
 Статистика раздачи 
Размер: 1.01 ГБ   |  Зарегистрирован: 12 июл 2018, 15:39   |   .torrent скачан: 0 раз
Сидеров: 1  [ 0 байт/сек ]     Личеров: 0  [ 0 байт/сек ]  
  

Железные ворота (Каирский вокзал) / Bab al-Hadid (Cairo Station) (Юсеф Шахин / Youssef Chahine) [1958, Египет, Драма, криминал, DVDRip] VO ((Nastia)) + Sub Rus

Сообщение Nakazhu » 12 июл 2018, 18:55

Железные ворота (Каирский вокзал) / Bab al-Hadid (Cairo Station)
Страна: Египет
Жанр: Драма, криминал
Год выпуска: 1958
Продолжительность: 01:16:56
Перевод: Одноголосый закадровый (Nastia)
Субтитры: русские
Оригинальная аудиодорожка: арабский
Режиссер: Юсеф Шахин / Youssef Chahine
В ролях: Фарид Шауки, Хинд Ростом, Юсеф Шахин, Хассан Эль Бароуди, Абдель Азиз Халил, Сэд Халил, Абдель Гани Нагди, Лоутфи Эль Хаким, Абдель Хамид Бодэоха
Описание: Самый известный фильм выдающегося египетского режиссера Юсефа Шахина, снятый в русле неореализма, но отличающийся мрачностью и патологичностью. В фильме с документальной достоверностью, поэтичностью и размахом показана нищая жизнь на вокзале самых низов трудового египетского народа - носильщиков, продавцов, разносчиков газет. Из жалости к хромоногому Кинави, приехавшему из деревни на заработки и ночующему на улице, владелец магазина на станции нанимает его продавцом прессы для проезжающих пассажиров и даже выделяет бедняге каморку. Впечатлённый повышением своего статуса, а также фото женщин в журналах, Кинави стремится к романтическим отношениям, однако все женщины лишь отмахиваются от него. Кинави влюбляется в красотку-продавщицу прохладительных напитков Хануму, которая вроде бы заигрывает с ним, не обращая внимания, что она помолвлена с Абу-Сири — неформальным лидером вокзальных носильщиков, пытающимся организовать их в профсоюз для улучшения оплаты труда. Кинави делает ей предложение, однако девушка обрывает его мечты об семье и детях. Одержимая любовь Кинави переходит в ненависть.
Сэмпл: https://yadi.sk/i/g-Q9sb-X3Z77A6
Качество видео: DVDRip
Формат видео: MKV
Видео: MPEG-4 AVC, 700х568 (4:3), 24.000 fps, 1500 kbps
Аудио: Русский (AC3, 48000 Hz, 2 ch, 192 kbps)
Аудио 2: арабский (AC3, 48000 Hz, 2 ch, 192 kbps)
Формат субтитров: softsub (SRT)
Доп. информация о субтитрах: Shinobi97 aka Carris
Код: Выделить всё
Общее
Уникальный идентификатор                 : 186894438675572550231563770656212259596 (0x8C9A8F4130AE5E50A5F3AE860D4E130C)
Полное имя                               : C:\Users\Olya\Downloads\Видео\Cairo Station (1958)[1].mkv
Формат                                   : Matroska
Версия формата                           : Version 2
Размер файла                             : 1,01 Гбайт
Продолжительность                        : 1 ч. 16 м.
Общий поток                              : 1886 Кбит/сек
Дата кодирования                         : UTC 2018-07-02 09:42:04
Программа кодирования                    : mkvmerge v4.0.0 ('The Stars were mine') сборка от Jun  6 2010 16:18:42
Библиотека кодирования                   : libebml v1.0.0 + libmatroska v1.0.0
Видео
Идентификатор                            : 1
Формат                                   : AVC
Формат/Информация                        : Advanced Video Codec
Профиль формата                          : High@L4.1
Настройки формата                        : CABAC / 8 Ref Frames
Параметр CABAC формата                   : Да
Параметр RefFrames формата               : 8 кадров
Идентификатор кодека                     : V_MPEG4/ISO/AVC
Продолжительность                        : 1 ч. 16 м.
Битрейт                                  : 1500 Кбит/сек
Ширина                                   : 700 пикселей
Высота                                   : 568 пикселей
Соотношение сторон                       : 4:3
Режим частоты кадров                     : Постоянный
Частота кадров                           : 24,000 кадра/сек
Цветовое пространство                    : YUV
Субдискретизация насыщенности            : 4:2:0
Битовая глубина                          : 8 бит
Тип развёртки                            : Прогрессивная
Бит/(Пиксели*Кадры)                      : 0.157
Размер потока                            : 806 Мбайт (78%)
Библиотека кодирования                   : x264 core 146 r2538 121396c
Настройки программы                      : cabac=1 / ref=8 / deblock=1:-3:-3 / analyse=0x3:0x133 / me=umh / subme=10 / psy=1 / psy_rd=1.00:0.15 / mixed_ref=1 / me_range=32 / chroma_me=0 / trellis=2 / 8x8dct=1 / cqm=0 / deadzone=21,11 / fast_pskip=0 / chroma_qp_offset=-3 / threads=8 / lookahead_threads=2 / sliced_threads=0 / nr=0 / decimate=0 / interlaced=0 / bluray_compat=0 / constrained_intra=0 / bframes=10 / b_pyramid=2 / b_adapt=2 / b_bias=0 / direct=1 / weightb=1 / open_gop=0 / weightp=2 / keyint=240 / keyint_min=24 / scenecut=40 / intra_refresh=0 / rc_lookahead=60 / rc=2pass / mbtree=1 / bitrate=1500 / ratetol=1.0 / qcomp=0.60 / qpmin=0 / qpmax=69 / qpstep=4 / cplxblur=20.0 / qblur=0.5 / vbv_maxrate=14000 / vbv_bufsize=14000 / nal_hrd=none / filler=0 / ip_ratio=1.40 / aq=1:1.00
Default                                  : Нет
Forced                                   : Нет
Аудио #1
Идентификатор                            : 2
Формат                                   : AC-3
Формат/Информация                        : Audio Coding 3
Идентификатор кодека                     : A_AC3
Продолжительность                        : 1 ч. 16 м.
Вид битрейта                             : Постоянный
Битрейт                                  : 192 Кбит/сек
Каналы                                   : 2 канала
Расположение каналов                     : Front: L R
Частота                                  : 48,0 КГц
Частота кадров                           : 31,250 кадров/сек (1536 SPF)
Битовая глубина                          : 16 бит
Метод сжатия                             : С потерями
Размер потока                            : 106 Мбайт (10%)
ServiceKind/String                       : Complete Main
Default                                  : Да
Forced                                   : Нет
Аудио #2
Идентификатор                            : 3
Формат                                   : AC-3
Формат/Информация                        : Audio Coding 3
Идентификатор кодека                     : A_AC3
Продолжительность                        : 1 ч. 16 м.
Вид битрейта                             : Постоянный
Битрейт                                  : 192 Кбит/сек
Каналы                                   : 2 канала
Расположение каналов                     : Front: L R
Частота                                  : 48,0 КГц
Частота кадров                           : 31,250 кадров/сек (1536 SPF)
Битовая глубина                          : 16 бит
Метод сжатия                             : С потерями
Размер потока                            : 106 Мбайт (10%)
Язык                                     : Arabic
ServiceKind/String                       : Complete Main
Default                                  : Нет
Forced                                   : Нет
Текст
Идентификатор                            : 4
Формат                                   : UTF-8
Идентификатор кодека                     : S_TEXT/UTF8
Идентификатор кодека/Информация          : UTF-8 Plain Text
Default                                  : Нет
Forced                                   : Нет
1
00:00:11,258 --> 00:00:16,467
Загружено с сайта www.OpenSubtitles.org
Перевод с английского Shinobi97 aka Carrista_Rabbioso
2
00:00:17,383 --> 00:00:20,633
Это каирский вокзал, сердце столицы.
3
00:00:21,883 --> 00:00:23,550
Ежеминутно отправляется один поезд
4
00:00:24,300 --> 00:00:26,258
и ежеминутно прибывает другой.
5
00:00:26,967 --> 00:00:30,008
Тысячи людей встречаются и прощаются:
6
00:00:31,383 --> 00:00:34,717
местные со всех концов и иностранцы,
7
00:00:35,425 --> 00:00:38,050
занятые делом и праздные...
8
00:00:39,467 --> 00:00:44,300
Я Мадбули, продавец прессы, а это мой прилавок.
9
00:00:45,550 --> 00:00:50,008
Моя работа позволяет мне читать обо всяких странных происшествиях
10
00:00:42,633 --> 00:00:54,717
и наблюдать ещё более странные события.
11
00:00:55,425 --> 00:01:00,008
Как-то раз после полуденного намаза
12
00:01:00,967 --> 00:01:03,967
я увидел сидящего на платформе бедняка.
13
00:01:05,133 --> 00:01:09,383
Молодого парня, каких я вижу здесь каждый день.
14
00:01:10,133 --> 00:01:13,967
Парня, покинувшего дом в поисках удачи и счастья.
15
00:01:15,508 --> 00:01:18,050
Я спросил, как его зовут, но он не ответил.
16
00:01:18,883 --> 00:01:23,342
Я заметил, что он увечный, и сжалился над ним —
17
00:01:24,050 --> 00:01:27,092
взял к себе торговать газетами.
18
00:01:28,758 --> 00:01:31,050
Звали его Кенави.
19
00:01:40,550 --> 00:01:46,133
Для жилья я нашёл ему лачугу у железной дороги.
20
00:01:48,467 --> 00:01:53,967
Я зашёл к нему узнать, как он устроился.
21
00:01:57,633 --> 00:02:01,133
Тогда-то я и понял всю глубину его отчаяния.
22
00:02:01,967 --> 00:02:04,300
Он отчаялся так, что ни о чём другом не мог думать.
23
00:02:12,800 --> 00:02:18,342
Бедный Кенави! Мог ли кто-нибудь предугадать, чем это закончится?
24
00:02:24,050 --> 00:02:27,217
Фарид Шоки
25
00:02:28,758 --> 00:02:31,383
Хинд Ростом
26
00:02:32,383 --> 00:02:36,050
Юсеф Шахин
27
00:02:37,092 --> 00:02:41,258
в фильме
Каирский вокзал
(Железные ворота)
28
00:02:41,967 --> 00:02:47,508
В ролях
Х. Эль-Баруди
Абдель Азиз Халил
Наима Васфи
Саид Халил
Абдель Гани Нагди
29
00:02:48,550 --> 00:02:53,758
Лутфи Эль-Хаким
Абдель Хамид Бадави
Ф. Эль-Демердаш
Саид Эль-Араби
Ахмед Абаза
С. Абдель Азиз
Хана Абдель Фаррах
30
00:02:54,800 --> 00:02:58,967
Также впервые на экране:
Сафия Сарват
Ассад Келлада
Шерин
 
Не забывайте говорить Спасибо. Не уходите с раздачи!   
Торрент: Зарегистрирован [12 июл 2018, 15:39] Скачать торрент
Скачать торрент
[ Размер 10.58 КБ / Просмотров 1 ]
Статус:
Проверен
 
.torrent скачан: 0 раз
Хэш: 7e19a9e37f5fd0ed9386308fff43328b24c40a02
Размер: 1.01 ГБ (1 088 392 162 байт)
Стать Автором раздачи
 
 
Раздал: 0 байт
Скачал: 0 байт
Ратио: Inf.
Сообщения: 487468
Зарегистрирован: 17 апр 2014, 13:57


  • Похожие торренты
    Ответы
    Просмотры
    Последнее сообщение

Вернуться в Зарубежное кино

Ресурс не предоставляет электронные версии произведений, а занимается лишь коллекционированием и каталогизацией ссылок, присылаемых и публикуемых на форуме нашими читателями. Если вы являетесь правообладателем какого-либо представленного материала и не желаете чтобы ссылка на него находилась в нашем каталоге, свяжитесь с нами и мы незамедлительно удалим её. Файлы для обмена на трекере предоставлены пользователями сайта, и администрация не несёт ответственности за их содержание. Просьба не заливать файлы, защищенные авторскими правами, а также файлы нелегального содержания!
cron