Тихое место / A Quiet Place (2018) BDRip 1080p от qusi555 | iTunes

 
 Статистика раздачи 
Размер: 6.82 ГБ   |  Зарегистрирован: 12 июл 2018, 17:16   |   .torrent скачан: 0 раз
Сидеров: 1  [ 0 байт/сек ]     Личеров: 0  [ 0 байт/сек ]  
  

Тихое место / A Quiet Place (2018) BDRip 1080p от qusi555 | iTunes

Сообщение Lester » 12 июл 2018, 17:52

Год выпуска: 2018
Страна: США
Производство: Platinum Dunes, Sunday Night Productions
Жанр: Ужасы, триллер, драма
Дата премьеры (мир): 9 марта 2018
Дата премьеры (РФ): 12 апреля 2018, «Централ Партнершип»
Режиссёр: Джон Красински
В ролях: Эмили Блант, Джон Красински, Ноа Джуп, Милли Симмондс, Леон Рассом, Кейд Вудворд, Дорис МакКарти


История одной семьи, которая проживает в небольшой уединённой ферме в далёкой американской глубинке. У главных героев есть двое детей. Казалось бы, жизнь этих людей совершенно не отличается от жизни других таких семей. Но главные герои живут в доме, который наполнен ужасными монстрами, реагирующими на любой звук. Герои разучили целый комплекс специальных жестов, которые помогают им общаться друг с другом, не издавая ни единого звука. Кроме того, каждый из членов семьи должен очень тихо передвигаться по всей территории дома, чтобы опасные существа не заметили их. Однако дом, где живут маленькие дети, не может быть самым тихим местом на земле.

Перевод: Дублированный (iTunes)
Качество: BDRip 1080p [Blu-ray Remux AVC Atmos -KRaLiMaRKo]
Продолжительность: 01:30:15
Видео: AVC/x264@4.1, 1920x800p, 10.000 kbps, 23.976 fps
Аудио: 48 kHz, AC3 Dolby Digital, 3/2 (L,C,R,l,r) + LFE ch, ~384.00 kbps avg | RUS (iTunes)
Аудио: 48 kHz, AC3 Dolby Digital, 3/2 (L,C,R,l,r) + LFE ch, ~448.00 kbps avg | ENG
Субтитры: Русские (форс., полные), Английские (BD FULL, BD SDH)



Video
ID : 1
Format : AVC
Format/Info : Advanced Video Codec
Format profile : High@L4.1
Format settings : CABAC / 5 Ref Frames
Format settings, CABAC : Yes
Format settings, RefFrames : 5 frames
Codec ID : V_MPEG4/ISO/AVC
Duration : 1 h 30 min
Bit rate : 10 000 kb/s
Width : 1 920 pixels
Height : 800 pixels
Display aspect ratio : 2.40:1
Frame rate mode : Constant
Frame rate : 23.976 (24000/1001) FPS
Color space : YUV
Chroma subsampling : 4:2:0
Bit depth : 8 bits
Scan type : Progressive
Bits/(Pixel*Frame) : 0.272
Stream size : 6.30 GiB (92%)
Title : qusi555 /TSRG/ Turkseed.com
Writing library : x264 core 155 r2901 7d0ff22
Encoding settings : cabac=1 / ref=5 / deblock=1:-3:-3 / analyse=0x3:0x113 / me=umh / subme=10 / psy=1 / psy_rd=1.05:0.00 / mixed_ref=1 / me_range=32 / chroma_me=1 / trellis=2 / 8x8dct=1 / cqm=0 / deadzone=21,11 / fast_pskip=0 / chroma_qp_offset=-4 / threads=8 / lookahead_threads=1 / sliced_threads=0 / nr=0 / decimate=0 / interlaced=0 / bluray_compat=0 / constrained_intra=0 / bframes=8 / b_pyramid=2 / b_adapt=2 / b_bias=0 / direct=3 / weightb=1 / open_gop=0 / weightp=2 / keyint=240 / keyint_min=23 / scenecut=40 / intra_refresh=0 / rc_lookahead=60 / rc=2pass / mbtree=0 / bitrate=10000 / ratetol=1.0 / qcomp=0.65 / qpmin=0 / qpmax=69 / qpstep=4 / cplxblur=20.0 / qblur=0.5 / vbv_maxrate=50000 / vbv_bufsize=62500 / nal_hrd=none / filler=0 / ip_ratio=1.30 / pb_ratio=1.20 / aq=3:0.80
Default : Yes
Forced : No

Audio #1
ID : 2
Format : AC-3
Format/Info : Audio Coding 3
Codec ID : A_AC3
Duration : 1 h 30 min
Bit rate mode : Constant
Bit rate : 384 kb/s
Channel(s) : 6 channels
Channel positions : Front: L C R, Side: L R, LFE
Sampling rate : 48.0 kHz
Frame rate : 31.250 FPS (1536 SPF)
Bit depth : 16 bits
Compression mode : Lossy
Stream size : 248 MiB (4%)
Title : iTunes
Language : Russian
Service kind : Complete Main
Default : Yes
Forced : No

Audio #2
ID : 3
Format : AC-3
Format/Info : Audio Coding 3
Codec ID : A_AC3
Duration : 1 h 30 min
Bit rate mode : Constant
Bit rate : 448 kb/s
Channel(s) : 6 channels
Channel positions : Front: L C R, Side: L R, LFE
Sampling rate : 48.0 kHz
Frame rate : 31.250 FPS (1536 SPF)
Bit depth : 16 bits
Compression mode : Lossy
Stream size : 289 MiB (4%)
Title : Original
Language : English
Service kind : Complete Main
Default : No
Forced : No

Text #1
ID : 4
Format : UTF-8
Codec ID : S_TEXT/UTF8
Codec ID/Info : UTF-8 Plain Text
Duration : 1 h 19 min
Bit rate : 9 b/s
Count of elements : 138
Stream size : 5.41 KiB (0%)
Title : Full
Language : Russian
Default : No
Forced : No

Text #2
ID : 5
Format : PGS
Muxing mode : zlib
Codec ID : S_HDMV/PGS
Codec ID/Info : Picture based subtitle format used on BDs/HD-DVDs
Duration : 1 h 11 min
Bit rate : 463 b/s
Count of elements : 228
Stream size : 244 KiB (0%)
Title : qusi555 /TSRG/ Turkseed.com
Language : English
Default : Yes
Forced : Yes

Text #3
ID : 6
Format : PGS
Muxing mode : zlib
Codec ID : S_HDMV/PGS
Codec ID/Info : Picture based subtitle format used on BDs/HD-DVDs
Duration : 1 h 11 min
Bit rate : 707 b/s
Count of elements : 302
Stream size : 372 KiB (0%)
Title : qusi555 /TSRG/ Turkseed.com
Language : English
Default : No
Forced : No

Text #4
ID : 7
Format : PGS
Muxing mode : zlib
Codec ID : S_HDMV/PGS
Codec ID/Info : Picture based subtitle format used on BDs/HD-DVDs
Duration : 1 h 22 min
Bit rate : 1 513 b/s
Count of elements : 652
Stream size : 910 KiB (0%)
Title : qusi555 /TSRG/ Turkseed.com
Language : English
Default : No
Forced : No

 
Не забывайте говорить Спасибо. Не уходите с раздачи!   
Торрент: Зарегистрирован [12 июл 2018, 17:16] Скачать торрент
Скачать торрент
[ Размер 35.13 КБ / Просмотров 2 ]
Статус:
Проверен
 
.torrent скачан: 0 раз
Хэш: 2d3bba8e9391ae5034492d6e5c8b1cfa32fdb210
Размер: 6.82 ГБ (7 326 685 858 байт)
Стать Автором раздачи
 
 
Раздал: 100 ГБ
Скачал: 0 байт
Ратио: Seed.
Сообщения: 122307
Зарегистрирован: 09 апр 2015, 23:00


  • Похожие торренты
    Ответы
    Просмотры
    Последнее сообщение

Вернуться в Зарубежное кино

Ресурс не предоставляет электронные версии произведений, а занимается лишь коллекционированием и каталогизацией ссылок, присылаемых и публикуемых на форуме нашими читателями. Если вы являетесь правообладателем какого-либо представленного материала и не желаете чтобы ссылка на него находилась в нашем каталоге, свяжитесь с нами и мы незамедлительно удалим её. Файлы для обмена на трекере предоставлены пользователями сайта, и администрация не несёт ответственности за их содержание. Просьба не заливать файлы, защищенные авторскими правами, а также файлы нелегального содержания!
cron