Суббота, воскресенье и пятница / Sabato, domenica e venerdi (1979) DVDRip-AVC от KORSAR | P

 
 Статистика раздачи 
Размер: 2.55 ГБ   |  Зарегистрирован: 12 июл 2018, 16:30   |   .torrent скачан: 0 раз
Сидеров: 1  [ 0 байт/сек ]     Личеров: 0  [ 0 байт/сек ]  
  

Суббота, воскресенье и пятница / Sabato, domenica e venerdi (1979) DVDRip-AVC от KORSAR | P

Сообщение Lester » 12 июл 2018, 17:11

Информация о фильме
Название: Суббота, воскресенье и пятница
Оригинальное название: Sabato, domenica e venerdi
Год выпуска: 1979
Жанр: Комедия
Режиссеры: Франко Кастеллано, Паскуале Феста Кампаниле, Серджо Мартино, Джузеппе Моччиа
В ролях: Адриано Челентано, Микеле Плачидо, Эдвиж Фенек, Барбара Буше, Лино Банфи, Даниэле Варгас, Лори Дель Санто, Милена Вукотич, Антонио Феррандис, Марго Коттенс, Мануэль Зарзо, Серджо Тардиоли, Сальваторе Айези, Лова Мур

О фильме: Три комедийные новеллы со звездами итальянского кино.
В первой новелле (режиссер Серджо Мартино) скромный, толстенький, лысоватый, низкорослый и почти женатый бухгалтер отправляется в аэропорт встречать японского инженера, а тот оказывается... сногосшибательной японкой (Фенеш), чья бабушка была гейшей. Разум бедолаги, совершенно очумевшего от своей почти жены, пытающейся взять под контроль каждое его действие и даже мысль, помутился...Во второй - усталый шофер Марио (Плачидо) просыпается из-за потоков воды, льющихся с потолка. Он отправляется к соседке наверх, и судьба его резко меняется. В третьей новелле мистер Константен (Челентано) имеет все: деньги, самых красивых женщин, даже собственный стриптиз-балет. Но и это не спасает его. Все неприятности в мире из-за женщин... Но и все лучшее тоже.



Выпущено: Италия, Испания, As Films Producción, Dania Film, Medusa Distribuzione, National Cinematografica
Продолжительность: 01:49:15
Перевод: Профессиональный многоголосый

Файл
Качество: DVDRip-AVC
Видео: MPEG-4 AVC, 2896 Кбит/с, 720x550@1020х550, 25.000 Кадр/с
Аудио 1: AC3, 2 ch, 224 Кбит/сек | Русский, профессиональный (многоголосый закадровый)
Аудио 2: AC3, 2 ch, 224 Кбит/сек | Итальянский, оригинал
Субтитры: Итальянские
Навигация по главам: Есть

Релиз от:




Общее
Уникальный идентификатор : 228435123921297122385077644591621152971 (0xABDB012A40D556C6B442346C44F320CB)
Полное имя : Sabato.domenica.e.venerdi.1979.DVDRip-AVC.KORSAR.mkv
Формат : Matroska
Версия формата : Version 2
Размер файла : 2,55 Гбайт
Продолжительность : 1 ч. 49 м.
Общий поток : 3346 Кбит/сек
Название фильма : Sabato.domenica.e.venerdi.1979.DVDRip-AVC.KORSAR
Дата кодирования : UTC 2017-06-05 19:12:40
Программа кодирования : mkvmerge v5.8.0 ('No Sleep / Pillow') built on Sep 2 2012 15:37:04
Библиотека кодирования : libebml v1.2.3 + libmatroska v1.3.0

Видео
Идентификатор : 1
Формат : AVC
Формат/Информация : Advanced Video Codec
Профиль формата : High@L4.1
Параметр CABAC формата : Да
Параметр ReFrames формата : 16 кадров
Идентификатор кодека : V_MPEG4/ISO/AVC
Продолжительность : 1 ч. 49 м.
Битрейт : 2896 Кбит/сек
Ширина : 720 пикселей
Высота : 550 пикселей
Соотношение сторон : 1,85:1
Режим частоты кадров : Постоянный
Частота кадров : 25,000 кадров/сек
Цветовое пространство : YUV
Субдискретизация насыщенности : 4:2:0
Битовая глубина : 8 бит
Тип развёртки : Прогрессивная
Бит/(Пиксели*Кадры) : 0.293
Размер потока : 2,16 Гбайт (85%)
Заголовок : Sabato.domenica.e.venerdi.1979.DVDRip-AVC.KORSAR
Библиотека кодирования : x264 core 148 r2744kMod b97ae06
Настройки программы : cabac=1 / ref=16 / deblock=1:-2:-2 / analyse=0x3:0x133 / me=umh / subme=11 / psy=1 / fade_compensate=0.00 / psy_rd=1.00:0.10 / mixed_ref=1 / me_range=48 / chroma_me=1 / trellis=2 / 8x8dct=1 / cqm=0 / deadzone=21,11 / fast_pskip=0 / chroma_qp_offset=-3 / threads=6 / lookahead_threads=1 / sliced_threads=0 / nr=0 / decimate=0 / interlaced=0 / bluray_compat=0 / constrained_intra=0 / bframes=16 / b_pyramid=2 / b_adapt=2 / b_bias=0 / direct=3 / weightb=1 / open_gop=0 / weightp=2 / keyint=250 / keyint_min=25 / scenecut=40 / intra_refresh=0 / rc_lookahead=40 / rc=2pass / mbtree=0 / bitrate=2896 / ratetol=1.0 / qcomp=0.60 / qpmin=0 / qpmax=69 / qpstep=4 / cplxblur=20.0 / qblur=0.5 / vbv_maxrate=50000 / vbv_bufsize=62500 / nal_hrd=none / filler=0 / ip_ratio=1.40 / pb_ratio=1.30 / aq=1:1.00
Язык : Italian
Default : Да
Forced : Нет

Аудио #1
Идентификатор : 2
Формат : AC-3
Формат/Информация : Audio Coding 3
Расширение режима : CM (complete main)
Параметр Endianness формата : Big
Идентификатор кодека : A_AC3
Продолжительность : 1 ч. 49 м.
Вид битрейта : Постоянный
Битрейт : 224 Кбит/сек
Каналы : 2 канала
Расположение каналов : Front: L R
Частота : 48,0 КГц
Частота кадров : 31,250 кадров/сек (1536 spf)
Битовая глубина : 16 бит
Метод сжатия : С потерями
Размер потока : 175 Мбайт (7%)
Заголовок : MVO
Язык : Russian
Default : Да
Forced : Нет

Аудио #2
Идентификатор : 3
Формат : AC-3
Формат/Информация : Audio Coding 3
Расширение режима : CM (complete main)
Параметр Endianness формата : Big
Идентификатор кодека : A_AC3
Продолжительность : 1 ч. 49 м.
Вид битрейта : Постоянный
Битрейт : 224 Кбит/сек
Каналы : 2 канала
Расположение каналов : Front: L R
Частота : 48,0 КГц
Частота кадров : 31,250 кадров/сек (1536 spf)
Битовая глубина : 16 бит
Метод сжатия : С потерями
Размер потока : 175 Мбайт (7%)
Заголовок : Original
Язык : Italian
Default : Нет
Forced : Нет

Текст
Идентификатор : 4
Формат : UTF-8
Идентификатор кодека : S_TEXT/UTF8
Идентификатор кодека/Информация : UTF-8 Plain Text
Язык : Italian
Default : Нет
Forced : Нет

Меню
00:00:00.000 : ru:Глава 1
00:04:05.280 : ru:Глава 2
00:09:24.480 : ru:Глава 3
00:30:39.840 : ru:Глава 4
00:35:27.840 : ru:Глава 5
00:38:04.320 : ru:Глава 6
00:50:40.800 : ru:Глава 7
01:00:27.360 : ru:Глава 8
01:06:22.080 : ru:Глава 9
01:10:15.360 : ru:Глава 10
01:16:39.360 : ru:Глава 11
01:21:33.120 : ru:Глава 12
01:30:54.720 : ru:Глава 13
01:36:06.720 : ru:Глава 14
01:38:29.760 : ru:Глава 15
01:45:06.720 : ru:Глава 16
01:49:15.240 : ru:Глава 17
 
Не забывайте говорить Спасибо. Не уходите с раздачи!   
Торрент: Зарегистрирован [12 июл 2018, 16:30] Скачать торрент
Скачать торрент
[ Размер 13.78 КБ / Просмотров 3 ]
Статус:
Проверен
 
.torrent скачан: 0 раз
Хэш: fd9588be06314d9eaa2d5a2d1c04c3e70ce5eb3e
Размер: 2.55 ГБ (2 742 135 204 байт)
Стать Автором раздачи
 
 
Раздал: 100 ГБ
Скачал: 0 байт
Ратио: Seed.
Сообщения: 122307
Зарегистрирован: 09 апр 2015, 23:00


  • Похожие торренты
    Ответы
    Просмотры
    Последнее сообщение

Вернуться в Зарубежное кино

Ресурс не предоставляет электронные версии произведений, а занимается лишь коллекционированием и каталогизацией ссылок, присылаемых и публикуемых на форуме нашими читателями. Если вы являетесь правообладателем какого-либо представленного материала и не желаете чтобы ссылка на него находилась в нашем каталоге, свяжитесь с нами и мы незамедлительно удалим её. Файлы для обмена на трекере предоставлены пользователями сайта, и администрация не несёт ответственности за их содержание. Просьба не заливать файлы, защищенные авторскими правами, а также файлы нелегального содержания!
cron