Попай / Popeye (Роберт Олтмен / Robert Altman) [1980, США, комедия, WEB-DLRip-AVC] AVO (Юрий Живов)

 
 Статистика раздачи 
Размер: 2.19 ГБ   |  Зарегистрирован: 12 июл 2018, 13:52   |   .torrent скачан: 0 раз
Сидеров: 1  [ 0 байт/сек ]     Личеров: 0  [ 0 байт/сек ]  
  

Попай / Popeye (Роберт Олтмен / Robert Altman) [1980, США, комедия, WEB-DLRip-AVC] AVO (Юрий Живов)

Сообщение Nakazhu » 12 июл 2018, 17:07

Попай / Popeye
Страна: США
Жанр: комедия
Год выпуска: 1980
Продолжительность: 01:53:57
Перевод: Авторский (одноголосый закадровый) Юрий Живов
Субтитры: нет
Режиссер: Роберт Олтмен / Robert Altman
В ролях: Робин Уильямс, Шелли Дювалл, Рей Уолстон, Пол Дули, Пол Л. Смит, Ричард Либертини, Дональд Моффет, МакИнтайр Диксон, Роберта Максвелл, Донован Скотт...
Описание: В поисках отца Попай оказывается в приморском городке Свитхевен. Там он влюбляется в прекрасную Олив, однако ее рука уже обещана здоровяку Блуто, и это становится препятствием их любви.
Сэмпл: http://sendfile.su/1430317
Качество видео: WEB-DLRip-AVC
Формат видео: MKV
Видео: 1152x480 (2.40:1), 23.976 fps, AVC, ~2558 Kbps, 0.193 bits/pixe
Аудио: Russian, 48.0 KHz, AC3, 2 ch, 192 Kbps - Юрий Живов
avs4x26x.exe: -L x264_64.exe --pass 2 --bitrate 2558 --preset medium --tune film --ref 10 --merange 32 --bframes 10 --direct auto --b-adapt 2 --trellis 2 --no-fast-pskip --no-dct-decimate --psy-rd 1.00:0.20 --subme 10 --me umh --no-mbtree --vbv-bufsize 62500 --vbv-maxrate 50000 --partitions p8x8,b8x8,i4x4,i8x8 --sar 1:1 --stats
raw [info]: 1152x480p 1:1 @ 24000/1001 fps (cfr)
x264 [info]: using SAR=1/1
x264 [info]: using cpu capabilities: MMX2 SSE2Fast LZCNT
x264 [info]: profile High, level 4.1
x264 [info]: frame I:1327 Avg QP:17.35 size: 77573
x264 [info]: frame P:39333 Avg QP:20.07 size: 25855
x264 [info]: frame B:123248 Avg QP:21.28 size: 8653
x264 [info]: consecutive B-frames: 1.9% 3.0% 6.6% 52.2% 12.0% 16.1% 2.7% 4.6% 0.6% 0.2% 0.1%
x264 [info]: mb I I16..4: 3.9% 70.8% 25.4%
x264 [info]: mb P I16..4: 0.8% 15.3% 2.1% P16..4: 39.1% 27.3% 14.0% 0.0% 0.0% skip: 1.4%
x264 [info]: mb B I16..4: 0.1% 1.4% 0.2% B16..8: 37.9% 14.1% 3.7% direct: 8.4% skip:34.2% L0:42.5% L1:40.5% BI:17.0%
x264 [info]: 8x8 transform intra:81.4% inter:60.8%
x264 [info]: direct mvs spatial:98.6% temporal:1.4%
x264 [info]: coded y,uvDC,uvAC intra: 89.9% 88.3% 63.7% inter: 29.4% 29.6% 11.5%
x264 [info]: i16 v,h,dc,p: 22% 14% 17% 47%
x264 [info]: i8 v,h,dc,ddl,ddr,vr,hd,vl,hu: 11% 13% 10% 7% 10% 10% 12% 10% 14%
x264 [info]: i4 v,h,dc,ddl,ddr,vr,hd,vl,hu: 10% 13% 4% 8% 13% 13% 15% 10% 15%
x264 [info]: i8c dc,h,v,p: 43% 25% 18% 14%
x264 [info]: Weighted P-Frames: Y:4.7% UV:1.2%
x264 [info]: ref P L0: 45.0% 14.3% 18.0% 5.4% 5.3% 3.2% 3.5% 1.7% 2.0% 1.6% 0.1% 0.0%
x264 [info]: ref B L0: 73.8% 11.8% 5.3% 2.9% 2.0% 1.8% 1.4% 0.7% 0.3%
x264 [info]: ref B L1: 95.2% 4.8%
x264 [info]: kb/s:2558.48
x264 [total]: encoded 163908 frames, 8.48 fps, 2558.49 kb/s
Код: Выделить всё
General
Unique ID                   : 191964010149542225207028158524329276815 (0x906AEC6D1011F5A5A1A1CC80C287B58F)
Complete name               : D:\Popeye.mkv
Format                      : Matroska
Format version              : Version 4 / Version 2
File size                   : 2.19 GiB
Duration                    : 1 h 53 min
Overall bit rate            : 2 752 kb/s
Encoded date                : UTC 2018-07-11 10:40:42
Writing application         : mkvmerge v23.0.0 ('The Bride Said No') 64-bit
Writing library             : libebml v1.3.6 + libmatroska v1.4.9
Video
ID                          : 1
Format                      : AVC
Format/Info                 : Advanced Video Codec
Format profile              : High@L4.1
Format settings             : CABAC / 10 Ref Frames
Format settings, CABAC      : Yes
Format settings, ReFrames   : 10 frames
Codec ID                    : V_MPEG4/ISO/AVC
Duration                    : 1 h 53 min
Bit rate                    : 2 558 kb/s
Width                       : 1 152 pixels
Height                      : 480 pixels
Display aspect ratio        : 2.40:1
Frame rate mode             : Constant
Frame rate                  : 23.976 (24000/1001) FPS
Color space                 : YUV
Chroma subsampling          : 4:2:0
Bit depth                   : 8 bits
Scan type                   : Progressive
Bits/(Pixel*Frame)          : 0.193
Stream size                 : 2.04 GiB (93%)
Writing library             : x264 core 152 r2851 ba24899
Encoding settings           : cabac=1 / ref=10 / deblock=1:-1:-1 / analyse=0x3:0x113 / me=umh / subme=10 / psy=1 / psy_rd=1.00:0.20 / mixed_ref=1 / me_range=32 / chroma_me=1 / trellis=2 / 8x8dct=1 / cqm=0 / deadzone=21,11 / fast_pskip=0 / chroma_qp_offset=-3 / threads=6 / lookahead_threads=1 / sliced_threads=0 / nr=0 / decimate=0 / interlaced=0 / bluray_compat=0 / constrained_intra=0 / bframes=10 / b_pyramid=2 / b_adapt=2 / b_bias=0 / direct=3 / weightb=1 / open_gop=0 / weightp=2 / keyint=250 / keyint_min=23 / scenecut=40 / intra_refresh=0 / rc_lookahead=40 / rc=2pass / mbtree=0 / bitrate=2558 / ratetol=1.0 / qcomp=0.60 / qpmin=0 / qpmax=69 / qpstep=4 / cplxblur=20.0 / qblur=0.5 / vbv_maxrate=50000 / vbv_bufsize=62500 / nal_hrd=none / filler=0 / ip_ratio=1.40 / pb_ratio=1.30 / aq=1:1.00
Language                    : English
Default                     : Yes
Forced                      : No
Audio
ID                          : 2
Format                      : AC-3
Format/Info                 : Audio Coding 3
Codec ID                    : A_AC3
Duration                    : 1 h 53 min
Bit rate mode               : Constant
Bit rate                    : 192 kb/s
Channel(s)                  : 2 channels
Channel positions           : Front: L R
Sampling rate               : 48.0 kHz
Frame rate                  : 31.250 FPS (1536 SPF)
Bit depth                   : 16 bits
Compression mode            : Lossy
Stream size                 : 156 MiB (7%)
Title                       : Юрий Живов
Language                    : Russian
Service kind                : Complete Main
Default                     : Yes
Forced                      : No
 
Не забывайте говорить Спасибо. Не уходите с раздачи!   
Торрент: Зарегистрирован [12 июл 2018, 13:52] Для скачивания .torrent
необходима регистрация
Или скачать с помощью
MediaGet
Статус:
Проверен
 
.torrent скачан: 0 раз
Хэш: 674cefded43ff224f6ecbee1d8963c90e8b24ee4
Размер: 2.19 ГБ (2 351 878 662 байт)
Стать Автором раздачи
 
 
Раздал: 0 байт
Скачал: 0 байт
Ратио: Inf.
Сообщения: 487468
Зарегистрирован: 17 апр 2014, 13:57


  • Похожие торренты
    Ответы
    Просмотры
    Последнее сообщение

Вернуться в Зарубежное кино

Ресурс не предоставляет электронные версии произведений, а занимается лишь коллекционированием и каталогизацией ссылок, присылаемых и публикуемых на форуме нашими читателями. Если вы являетесь правообладателем какого-либо представленного материала и не желаете чтобы ссылка на него находилась в нашем каталоге, свяжитесь с нами и мы незамедлительно удалим её. Файлы для обмена на трекере предоставлены пользователями сайта, и администрация не несёт ответственности за их содержание. Просьба не заливать файлы, защищенные авторскими правами, а также файлы нелегального содержания!
cron