Перекресток миров / Crossworlds (1996) DVDRip-AVC | P2, A

 
 Статистика раздачи 
Размер: 2.86 ГБ   |  Зарегистрирован: 12 июл 2018, 15:54   |   .torrent скачан: 0 раз
Сидеров: 1  [ 0 байт/сек ]     Личеров: 0  [ 0 байт/сек ]  
  

Перекресток миров / Crossworlds (1996) DVDRip-AVC | P2, A

Сообщение Lester » 12 июл 2018, 16:30

Название: Перекресток миров
Оригинальное название: Crossworlds
Год выхода: 1996
Страна: США
Студия: Trimark Pictures
Продолжительность: 01:31:04
Жанр: фантастика, боевик, комедия

Режиссер: Кришна Рао
В ролях: Рутгер Хауэр, Джош Чарльз, Стюарт Уилсон, Андреа Рот, Перри Анзилотти, Джек Блэк, Ричард МакГрегор, Эллен Гир, Беверли Джонсон, Майкл Стэдвек, ...

Перевод:
- Профессиональный (двухголосый, закадровый) с DVD от «Videogram»
- Профессиональный (двухголосый, закадровый) Фортуна-фильм
- Авторский (одноголосый, закадровый) Карцев Петр
- Субтитры

О фильме: Есть несколько точек во всей Вселенной, где пересекаются разные измерения, и есть люди-мистики, умеющие переходить из одного мира в другой. Наемник Эй-Ти сопровождает красавицу Лору, принцессу из далекой Галактики, и Джо Тэлбота, лос-анджелесского студента, в их мистическом путешествии сквозь время и пространство.
Где бы они ни оказывались, не прекращается их битва со злодеем Феррисом, который хочет овладеть волшебным кристаллом и магическим скипетром, чтобы провести через «перекресток миров» свои армии смерти…



Кодек: x264
Качество: DVDRip-AVC
Видео: 720x540, 3500 kbps, 23,976 fps
Аудио #1: AC-3, 6 ch, 384 kbps (Rus) - DVO DVD «Videogram»
Аудио #2: AC-3, 2 ch, 224 kbps (Rus) - DVO Фортуна-фильм
Аудио #3: AC-3, 2 ch, 192 kbps (Rus) - AVO Карцев Петр
Аудио #4: AC-3, 2 ch, 192 kbps (Eng)
Субтитры: русские, английские

За исходник спасибо - AlsKnight

x264 [info]: frame I:1007 Avg QP:16.86 size: 68438
x264 [info]: frame P:26483 Avg QP:19.07 size: 32837
x264 [info]: frame B:103515 Avg QP:21.30 size: 14014
x264 [info]: consecutive B-frames: 1.5% 2.1% 6.4% 14.0% 10.7% 60.3% 3.0% 0.6% 0.5% 0.1% 0.1% 0.1% 0.0% 0.0% 0.5%

Общее
Уникальный идентификатор : 239338410106725800633352473988294603872 (0xB40EE6AD9D7D329182EF3C49B0217460)
Полное имя : Перекресток миров (Crossworlds) 1996 DVDRip.mkv
Формат : Matroska
Версия формата : Version 2
Размер файла : 2,86 Гбайт
Продолжительность : 1 ч. 31 м.
Общий поток : 4493 Кбит/сек
Дата кодирования : UTC 2017-02-18 11:38:12
Программа кодирования : mkvmerge v4.0.0 ('The Stars were mine') сборка от Jun 6 2010 16:18:42
Библиотека кодирования : libebml v1.0.0 + libmatroska v1.0.0

Видео
Идентификатор : 1
Формат : AVC
Формат/Информация : Advanced Video Codec
Профиль формата : High@L4.1
Параметр CABAC формата : Да
Параметр ReFrames формата : 12 кадров
Идентификатор кодека : V_MPEG4/ISO/AVC
Продолжительность : 1 ч. 31 м.
Битрейт : 3500 Кбит/сек
Ширина : 720 пикселей
Высота : 540 пикселей
Соотношение сторон : 4:3
Режим частоты кадров : Постоянный
Частота кадров : 23,976 (24000/1001) кадра/сек
Цветовое пространство : YUV
Субдискретизация насыщенности : 4:2:0
Битовая глубина : 8 бит
Тип развёртки : Прогрессивная
Бит/(Пиксели*Кадры) : 0.375
Размер потока : 2,17 Гбайт (76%)
Библиотека кодирования : x264 core 146 r2538 121396c
Настройки программы : cabac=1 / ref=12 / deblock=1:-1:-1 / analyse=0x3:0x133 / me=umh / subme=11 / psy=1 / psy_rd=1.00:0.00 / mixed_ref=1 / me_range=32 / chroma_me=1 / trellis=2 / 8x8dct=1 / cqm=0 / deadzone=21,11 / fast_pskip=0 / chroma_qp_offset=-2 / threads=12 / lookahead_threads=2 / sliced_threads=0 / nr=0 / decimate=0 / interlaced=0 / bluray_compat=0 / constrained_intra=0 / bframes=14 / b_pyramid=2 / b_adapt=2 / b_bias=0 / direct=3 / weightb=1 / open_gop=0 / weightp=2 / keyint=240 / keyint_min=23 / scenecut=40 / intra_refresh=0 / rc=2pass / mbtree=0 / bitrate=3500 / ratetol=1.0 / qcomp=0.60 / qpmin=0 / qpmax=69 / qpstep=4 / cplxblur=20.0 / qblur=0.5 / ip_ratio=1.40 / pb_ratio=1.30 / aq=1:0.80
Язык : English
Default : Нет
Forced : Нет

Аудио #1
Идентификатор : 2
Формат : AC-3
Формат/Информация : Audio Coding 3
Расширение режима : CM (complete main)
Параметр Endianness формата : Big
Идентификатор кодека : A_AC3
Продолжительность : 1 ч. 31 м.
Вид битрейта : Постоянный
Битрейт : 384 Кбит/сек
Каналы : 6 каналов
Расположение каналов : Front: L C R, Side: L R, LFE
Частота : 48,0 КГц
Частота кадров : 31,250 кадров/сек (1536 spf)
Метод сжатия : С потерями
Размер потока : 250 Мбайт (9%)
Заголовок : DVO DVD «Videogram»
Язык : Russian
Default : Нет
Forced : Нет

Аудио #2
Идентификатор : 3
Формат : AC-3
Формат/Информация : Audio Coding 3
Расширение режима : CM (complete main)
Параметр Endianness формата : Big
Идентификатор кодека : A_AC3
Продолжительность : 1 ч. 31 м.
Вид битрейта : Постоянный
Битрейт : 224 Кбит/сек
Каналы : 2 канала
Расположение каналов : Front: L R
Частота : 48,0 КГц
Частота кадров : 31,250 кадров/сек (1536 spf)
Метод сжатия : С потерями
Размер потока : 146 Мбайт (5%)
Заголовок : DVO Фортуна-фильм
Язык : Russian
Default : Нет
Forced : Нет

Аудио #3
Идентификатор : 4
Формат : AC-3
Формат/Информация : Audio Coding 3
Расширение режима : CM (complete main)
Параметр Endianness формата : Big
Идентификатор кодека : A_AC3
Продолжительность : 1 ч. 31 м.
Вид битрейта : Постоянный
Битрейт : 192 Кбит/сек
Каналы : 2 канала
Расположение каналов : Front: L R
Частота : 48,0 КГц
Частота кадров : 31,250 кадров/сек (1536 spf)
Метод сжатия : С потерями
Размер потока : 125 Мбайт (4%)
Заголовок : AVO Карцев Петр
Язык : Russian
Default : Нет
Forced : Нет

Аудио #4
Идентификатор : 5
Формат : AC-3
Формат/Информация : Audio Coding 3
Расширение режима : CM (complete main)
Параметр Endianness формата : Big
Идентификатор кодека : A_AC3
Продолжительность : 1 ч. 31 м.
Вид битрейта : Постоянный
Битрейт : 192 Кбит/сек
Каналы : 2 канала
Расположение каналов : Front: L R
Частота : 48,0 КГц
Частота кадров : 31,250 кадров/сек (1536 spf)
Метод сжатия : С потерями
Размер потока : 125 Мбайт (4%)
Язык : English
Default : Нет
Forced : Нет

Текст #1
Идентификатор : 6
Формат : UTF-8
Идентификатор кодека : S_TEXT/UTF8
Идентификатор кодека/Информация : UTF-8 Plain Text
Язык : Russian
Default : Нет
Forced : Нет

Текст #2
Идентификатор : 7
Формат : UTF-8
Идентификатор кодека : S_TEXT/UTF8
Идентификатор кодека/Информация : UTF-8 Plain Text
Язык : English
Default : Нет
Forced : Нет


 
Не забывайте говорить Спасибо. Не уходите с раздачи!   
Торрент: Зарегистрирован [12 июл 2018, 15:54] Для скачивания .torrent
необходима регистрация
Или скачать с помощью
MediaGet
Статус:
Проверен
 
.torrent скачан: 0 раз
Хэш: da5907c7185e49e0d86d933c92c3cd62f36328b3
Размер: 2.86 ГБ (3 068 560 870 байт)
Стать Автором раздачи
 
 
Раздал: 100 ГБ
Скачал: 0 байт
Ратио: Seed.
Сообщения: 117767
Зарегистрирован: 09 апр 2015, 23:00


  • Похожие торренты
    Ответы
    Просмотры
    Последнее сообщение

Вернуться в Зарубежное кино

Ресурс не предоставляет электронные версии произведений, а занимается лишь коллекционированием и каталогизацией ссылок, присылаемых и публикуемых на форуме нашими читателями. Если вы являетесь правообладателем какого-либо представленного материала и не желаете чтобы ссылка на него находилась в нашем каталоге, свяжитесь с нами и мы незамедлительно удалим её. Файлы для обмена на трекере предоставлены пользователями сайта, и администрация не несёт ответственности за их содержание. Просьба не заливать файлы, защищенные авторскими правами, а также файлы нелегального содержания!
cron