Змея в тени орла / Se ying diu sau / Snake in the Eagle's Shadow (Юэнь Ву-пин / Yuen Woo-ping) [1978, Гонконг, Комедийный боевик, HDRip] AVO (Юрий Живов) + Original Eng + Original Chi

 
 Статистика раздачи 
Размер: 1.47 ГБ   |  Зарегистрирован: 12 июл 2018, 12:44   |   .torrent скачан: 0 раз
Сидеров: 1  [ 0 байт/сек ]     Личеров: 0  [ 0 байт/сек ]  
  

Змея в тени орла / Se ying diu sau / Snake in the Eagle's Shadow (Юэнь Ву-пин / Yuen Woo-ping) [1978, Гонконг, Комедийный боевик, HDRip] AVO (Юрий Живов) + Original Eng + Original Chi

Сообщение Nakazhu » 12 июл 2018, 16:05

Змея в тени орла / Se ying diu sau / Snake in the Eagle's Shadow
Страна: Гонконг
Жанр: Комедийный боевик
Год выпуска: 1978
Продолжительность: 01:37:38
Перевод: Авторский (одноголосый закадровый) Юрий Живов
Субтитры: нет
Оригинальная аудиодорожка: английский
Режиссер: Юэнь Ву-пин / Yuen Woo-ping
В ролях: Джеки Чан, Юань Сяотянь, Янг Ли Хванг, Дин Шек, Рой Хоран, Фунг Харк-Он, Ланг Чан,
Чен Тиен Лунг, Йао Лин Чен, Цзинь Цзян
Описание: Китай времен династии Цин. Бедный сирота Чиен Фу случайно спасает жизнь мастеру
кунг-фу Пай Чен-Ченю, последнему оставшемуся в живых представителю школы Змеиного Кулака,
уничтоженной зловещим кланом Орлиного Когтя. Благородный мастер берет юношу в ученики,
дабы передать ему секреты своего боевого стиля.
А ученик оказывается настолько талантлив, что на основе приемов учителя даже создает
собственный стиль! Очень своевременное изобретение, которому вскоре придется пройти самую
суровую проверку, когда орда адептов Орлиного Когтя во главе с непобедимым Шень Куаном
обнаружат Пай Чень-Ченя и явятся убить его.
Доп. информация: Дорожка с Ю. Живовым синхронизирована и наложена ale_x2008 при помощи Adobe Audition, Sony Vegas и VirtualDubMod.
За оцифрованную с VHS дорожку благодарим - RoxMarty
Релиз
Сэмпл: https://yadi.sk/i/Tk7OmbT13Z6jmu
Качество видео: HDRip
Формат видео: AVI
Видео: XviD build 50, 720x304 (2.37:1), 23.976 fps, 1563 kbps avg, 0.3 bit/pixel
Аудио: AC3 Dolby Digital, 48000Hz 2/0 (L,R) ch (mono), 192 kbps avg
Аудио 2: 48 kHz, AC3 Dolby Digital, 2/0 (L,R) ch, ~192 kbps Eng
Аудио 3: 48 kHz, AC3 Dolby Digital, 2/0 (L,R) ch, ~192 kbps Chi
Код: Выделить всё
Змея в тени орла - Se ying diu sau (by ale_x2008).avi
Format                      : AVI
Format/Info                 : Audio Video Interleave
File size                   : 1.34 GiB
Duration                    : 1 h 37 min
Overall bit rate            : 1 962 kb/s
Movie name                  : Змея в тени орла - Se ying diu sau (by ale_x2008)
Director                    : by ale_x2008
Writing application         : VirtualDubMod 1.5.10.2 (build 2540/release)
Copyright                   : Edich2
Comment                     : RuTracker.org
Video
ID                          : 0
Format                      : MPEG-4 Visual
Format profile              : Advanced Simple@L5
Format settings             : BVOP1
Format settings, BVOP       : 1
Format settings, QPel       : No
Format settings, GMC        : No warppoints
Format settings, Matrix     : Default (MPEG)
Codec ID                    : XVID
Codec ID/Hint               : XviD
Duration                    : 1 h 37 min
Bit rate                    : 1 563 kb/s
Width                       : 720 pixels
Height                      : 304 pixels
Display aspect ratio        : 2.35:1
Frame rate                  : 23.976 (24000/1001) FPS
Color space                 : YUV
Chroma subsampling          : 4:2:0
Bit depth                   : 8 bits
Scan type                   : Progressive
Compression mode            : Lossy
Bits/(Pixel*Frame)          : 0.298
Stream size                 : 1.07 GiB (80%)
Writing library             : XviD 1.2.1 (UTC 2008-12-04)
Audio #1
ID                          : 1
Format                      : AC-3
Format/Info                 : Audio Coding 3
Codec ID                    : 2000
Duration                    : 1 h 37 min
Bit rate mode               : Constant
Bit rate                    : 192 kb/s
Channel(s)                  : 2 channels
Channel positions           : Front: L R
Sampling rate               : 48.0 kHz
Frame rate                  : 31.250 FPS (1536 SPF)
Bit depth                   : 16 bits
Compression mode            : Lossy
Stream size                 : 134 MiB (10%)
Alignment                   : Split accross interleaves
Interleave, duration        : 42  ms (1.00 video frame)
Interleave, preload duratio : 500  ms
Service kind                : Complete Main
Audio #2
ID                          : 2
Format                      : AC-3
Format/Info                 : Audio Coding 3
Codec ID                    : 2000
Duration                    : 1 h 37 min
Bit rate mode               : Constant
Bit rate                    : 192 kb/s
Channel(s)                  : 2 channels
Channel positions           : Front: L R
Sampling rate               : 48.0 kHz
Frame rate                  : 31.250 FPS (1536 SPF)
Bit depth                   : 16 bits
Compression mode            : Lossy
Stream size                 : 134 MiB (10%)
Alignment                   : Split accross interleaves
Interleave, duration        : 42  ms (1.00 video frame)
Interleave, preload duratio : 500  ms
Service kind                : Complete Main
Audio #2
ID                          : 3
Format                      : AC-3
Format/Info                 : Audio Coding 3
Codec ID                    : 2000
Duration                    : 1 h 37 min
Bit rate mode               : Constant
Bit rate                    : 192 kb/s
Channel(s)                  : 2 channels
Channel positions           : Front: L R
Sampling rate               : 48.0 kHz
Frame rate                  : 31.250 FPS (1536 SPF)
Bit depth                   : 16 bits
Compression mode            : Lossy
Stream size                 : 134 MiB (10%)
Alignment                   : Split accross interleaves
Interleave, duration        : 42  ms (1.00 video frame)
Interleave, preload duratio : 500  ms
Service kind                : Complete Main

 
Не забывайте говорить Спасибо. Не уходите с раздачи!   
Торрент: Зарегистрирован [12 июл 2018, 12:44] Скачать торрент
Скачать торрент
[ Размер 15.21 КБ / Просмотров 1 ]
Статус:
Проверен
 
.torrent скачан: 0 раз
Хэш: e912a037f6c02cd19d7788644e0e2027dc2b1535
Размер: 1.47 ГБ (1 580 777 472 байт)
Стать Автором раздачи
 
 
Раздал: 0 байт
Скачал: 0 байт
Ратио: Inf.
Сообщения: 487468
Зарегистрирован: 17 апр 2014, 13:57


  • Похожие торренты
    Ответы
    Просмотры
    Последнее сообщение

Вернуться в Зарубежное кино

Ресурс не предоставляет электронные версии произведений, а занимается лишь коллекционированием и каталогизацией ссылок, присылаемых и публикуемых на форуме нашими читателями. Если вы являетесь правообладателем какого-либо представленного материала и не желаете чтобы ссылка на него находилась в нашем каталоге, свяжитесь с нами и мы незамедлительно удалим её. Файлы для обмена на трекере предоставлены пользователями сайта, и администрация не несёт ответственности за их содержание. Просьба не заливать файлы, защищенные авторскими правами, а также файлы нелегального содержания!
cron