Головой об стену / Droit dans le mur (Пьер Ришар / Pierre Richard) [1997, Франция, Комедия, DVDRip] (Lisok) + Sub Rus + Original Fra

 
 Статистика раздачи 
Размер: 1.37 ГБ   |  Зарегистрирован: 12 июл 2018, 12:40   |   .torrent скачан: 0 раз
Сидеров: 1  [ 0 байт/сек ]     Личеров: 0  [ 0 байт/сек ]  
  

Головой об стену / Droit dans le mur (Пьер Ришар / Pierre Richard) [1997, Франция, Комедия, DVDRip] (Lisok) + Sub Rus + Original Fra

Сообщение Nakazhu » 12 июл 2018, 15:50

Головой об стену / Droit dans le mur
Страна: Франция
Жанр: Комедия
Год выпуска: 1997
Продолжительность: 01:29:58
Перевод: Субтитры Lisok
Субтитры: Русские
Оригинальная аудиодорожка: Французский
Режиссер: Пьер Ришар / Pierre Richard
В ролях: Пьер Ришар, Вероник Жене, Каролин Сиоль, Даниэль Руссо, Даниэль Прево, Изабель Канделье, Джефри Бейтмен, Валери Бенгиги, Патрик Рокка, Дарри Коул
Описание: Некогда знаменитый комик Ромен-Ромен однажды почувствовал, что стареет. Случайно он оказывается на подмостках старого и никому не известного театрика в пригороде Парижа за сорок восемь часов до премьеры нового спектакля.
Это должно быть очень важное представление, потому что от него зависит творческая судьба Ромена-Ромена. Однако именно в этот момент на седую голову комика посыпались мелкие и крупные неприятности в лице разных непрошеных гостей, старых друзей, любовниц… А тут еще погода портится.
Доп. информация: Рип с оригинального DVD за сабы Спасибо Lisok с раздачи qwerty976
Сэмпл: http://multi-up.com/1203626
Качество видео: DVDRip
Формат видео: AVI
Видео: XviD 704х384, 25.000 fps, 1 977 Kbps
Аудио: Французский (AC3 192 kbps 2 ch 48.0 KHz)
Формат субтитров: softsub (SRT)
Код: Выделить всё
General
Complete name                            : C:\Documents and Settings\admin\Мои документы\Downloads\Droit Dans Le Mur 1997\Droit Dans Le Mur 1997.avi
Format                                   : AVI
Format/Info                              : Audio Video Interleave
File size                                : 1.37 GiB
Duration                                 : 1h 29mn
Overall bit rate                         : 2 176 Kbps
Writing application                      : VirtualDubMod 1.5.4.1 (build 2178/release)
Writing library                          : VirtualDubMod build 2178/release
Video
ID                                       : 0
Format                                   : MPEG-4 Visual
Format profile                           : Advanced Simple@L5
Format settings, BVOP                    : 1
Format settings, QPel                    : No
Format settings, GMC                     : No warppoints
Format settings, Matrix                  : Custom
Codec ID                                 : XVID
Codec ID/Hint                            : XviD
Duration                                 : 1h 29mn
Bit rate                                 : 1 977 Kbps
Width                                    : 704 pixels
Height                                   : 384 pixels
Display aspect ratio                     : 1.85:1
Frame rate                               : 25.000 fps
Color space                              : YUV
Chroma subsampling                       : 4:2:0
Bit depth                                : 8 bits
Scan type                                : Progressive
Compression mode                         : Lossy
Bits/(Pixel*Frame)                       : 0.293
Stream size                              : 1.24 GiB (91%)
Writing library                          : XviD 64
Audio
ID                                       : 1
Format                                   : AC-3
Format/Info                              : Audio Coding 3
Mode extension                           : CM (complete main)
Format settings, Endianness              : Big
Codec ID                                 : 2000
Duration                                 : 1h 29mn
Bit rate mode                            : Constant
Bit rate                                 : 192 Kbps
Channel(s)                               : 2 channels
Channel positions                        : Front: L R
Sampling rate                            : 48.0 KHz
Bit depth                                : 16 bits
Compression mode                         : Lossy
Stream size                              : 124 MiB (9%)
Alignment                                : Split accross interleaves
Interleave, duration                     : 96 ms (2.40 video frames)
Interleave, preload duration             : 96 ms
Language                                 : Russian
1
00:00:01,000 --> 00:00:03,700
ЖАН-ЛУИ ЛЕВИ
представляет
2
00:00:04,110 --> 00:00:06,700
ПЬЕР РИШАР
3
00:00:07,100 --> 00:00:09,800
ВЕРОНИК ЖЕНЕ
4
00:00:10,220 --> 00:00:12,800
КАРОЛИН СИОЛЬ
5
00:00:13,200 --> 00:00:15,800
ДАНИЭЛЬ РЮССО
6
00:00:16,240 --> 00:00:19,000
ДАНИЭЛЬ ПРЕВО
7
00:00:19,370 --> 00:00:22,310
"ГОЛОВОЙ ОБ СТЕНУ"
8
00:00:22,900 --> 00:00:26,470
Сценарий:
ПЬЕР РИШАР и ОЛИВЬЕ ДАЗА
9
00:00:26,850 --> 00:00:30,110
Диалоги:
ОЛИВЬЕ ДАЗА
10
00:00:31,100 --> 00:00:34,950
В ролях:
ИЗАБЕЛЬ КАНДЕЛЬЕ
ДЖОФФРЕЙ БЕЙТМАН
11
00:00:38,240 --> 00:00:41,900
ВАЛЕРИ БЕНГИГИ
ПАТРИК РОККА
12
00:00:42,600 --> 00:00:45,450
При участии ДАРРИ КОУЛА
13
00:00:46,100 --> 00:00:49,800
Оригинальная музыка:
КРИСТОФ и ОЛИВЬЕ ДЕФЕЙ
14
00:00:50,210 --> 00:00:53,360
Оператор:
АНТУАН РОШ
15
00:00:54,540 --> 00:00:57,700
Звук:
МИШЕЛЬ ХАРА, ЖЕРАР РУССО
16
00:00:58,000 --> 00:01:01,550
Монтаж:
НИКОЛЬ СОНЬЕ
17
00:01:27,640 --> 00:01:29,870
Месье Роман,
это опять ваш сосед.
18
00:01:29,950 --> 00:01:31,160
Скажите, пусть перезвонит.
19
00:01:31,350 --> 00:01:33,160
Он уже 2 раза звонил!
20
00:01:33,290 --> 00:01:35,230
Скажите, пусть попробует
в третий.
 
Не забывайте говорить Спасибо. Не уходите с раздачи!   
Торрент: Зарегистрирован [12 июл 2018, 12:40] Для скачивания .torrent
необходима регистрация
Или скачать с помощью
MediaGet
Статус:
Проверен
 
.torrent скачан: 0 раз
Хэш: c412e8741c7f39ad59c498e84e072810b864563b
Размер: 1.37 ГБ (1 468 573 565 байт)
Стать Автором раздачи
 
 
Раздал: 0 байт
Скачал: 0 байт
Ратио: Inf.
Сообщения: 486962
Зарегистрирован: 17 апр 2014, 13:57


  • Похожие торренты
    Ответы
    Просмотры
    Последнее сообщение

Вернуться в Зарубежное кино

Ресурс не предоставляет электронные версии произведений, а занимается лишь коллекционированием и каталогизацией ссылок, присылаемых и публикуемых на форуме нашими читателями. Если вы являетесь правообладателем какого-либо представленного материала и не желаете чтобы ссылка на него находилась в нашем каталоге, свяжитесь с нами и мы незамедлительно удалим её. Файлы для обмена на трекере предоставлены пользователями сайта, и администрация не несёт ответственности за их содержание. Просьба не заливать файлы, защищенные авторскими правами, а также файлы нелегального содержания!
cron