Два дракона против тигра / Два дракона : Бой против тигра / Two Dragons Fight Against Tiger / Shuang long tu hu (Гэм Синг Ян / Gam Sing Yan) [1975, Тайвань, боевые искусства, DVDRip] AVO (Сергей Кузнецов)

 
 Статистика раздачи 
Размер: 745.19 МБ   |  Зарегистрирован: 12 июл 2018, 12:24   |   .torrent скачан: 0 раз
Сидеров: 1  [ 0 байт/сек ]     Личеров: 0  [ 0 байт/сек ]  
  

Два дракона против тигра / Два дракона : Бой против тигра / Two Dragons Fight Against Tiger / Shuang long tu hu (Гэм Синг Ян / Gam Sing Yan) [1975, Тайвань, боевые искусства, DVDRip] AVO (Сергей Кузнецов)

Сообщение Nakazhu » 12 июл 2018, 15:35

Два дракона против тигра / Два дракона : Бой против тигра / Two Dragons Fight Against Tiger / Shuang long tu hu
Страна: Тайвань
Жанр: боевые искусства
Год выпуска: 1975
Продолжительность: 01:26:07
Перевод: Авторский (одноголосый закадровый) Сергей Кузнецов
Субтитры: нет
Режиссер: Гэм Синг Ян / Gam Sing Yan
В ролях: Пинг Чанг, Фу Чианг Чи, Лаан Чи, Минг-Чинг Чоу, Ченг-Пенг Као, Тинг Чи, Мяо Синь, Чанг Си, Минь Нга
Описание: Ко Тянь Люнг возвращается в родной город, чтобы отомстить за убийство своих родителей, задача, к которой он готовил себя 20 лет, изучая боевые искусства. Но когда он устранил подручных самого главного врага, он может заколебаться в своем стремлении устранить босса, потому что он влюбляется в дочь своего заклятого врага. Сможет ли он теперь отомстить за убийство своих родителей сполна?
Сэмпл: http://multi-up.com/1203625
Качество видео: DVDRip (Исходник DVD-Video)
Формат видео: AVI
Видео: XviD, 640x272, (2,35:1), 23,976 fps, 1071 Кбит/с, 8 бит
Аудио: Русский (MP3, 2 ch, 48,0 KHz, 128 Kbps)
Код: Выделить всё
Общее
Полное имя                               : H:\Фильмы на трекер\Два дракона против тигра  (боевые искусства 1975 год).avi
Формат                                   : AVI
Формат/Информация                        : Audio Video Interleave
Размер файла                             : 745 Мбайт
Продолжительность                        : 1 ч. 26 м.
Общий поток                              : 1209 Кбит/сек
Программа кодирования                    : VirtualDubMod 1.5.10.3 | www.virtualdub-fr.org || (build 2550/release)
Библиотека кодирования                   : VirtualDubMod build 2550/release
Видео
Идентификатор                            : 0
Формат                                   : MPEG-4 Visual
Профиль формата                          : Advanced Simple@L5
Параметр BVOP формата                    : 2
Параметр QPel формата                    : Нет
Параметр GMC формата                     : Без точки перехода
Параметр матрицы формата                 : Выборочная
Идентификатор кодека                     : XVID
Идентификатор кодека/Подсказка           : XviD
Продолжительность                        : 1 ч. 26 м.
Битрейт                                  : 1071 Кбит/сек
Ширина                                   : 640 пикселей
Высота                                   : 272 пикселя
Соотношение сторон                       : 2,35:1
Частота кадров                           : 23,976 (23976/1000) кадра/сек
Цветовое пространство                    : YUV
Субдискретизация насыщенности            : 4:2:0
Битовая глубина                          : 8 бит
Тип развёртки                            : Прогрессивная
Метод сжатия                             : С потерями
Бит/(Пиксели*Кадры)                      : 0.257
Размер потока                            : 660 Мбайт (89%)
Библиотека кодирования                   : XviD 73
Аудио
Идентификатор                            : 1
Формат                                   : MPEG Audio
Версия формата                           : Version 1
Профиль формата                          : Layer 3
Идентификатор кодека                     : 55
Идентификатор кодека/Подсказка           : MP3
Продолжительность                        : 1 ч. 26 м.
Вид битрейта                             : Постоянный
Битрейт                                  : 128 Кбит/сек
Каналы                                   : 2 канала
Частота                                  : 44,1 КГц
Метод сжатия                             : С потерями
Размер потока                            : 78,9 Мбайт (11%)
Выравнивание                             : Разделение по промежуткам
Продолжительность промежутка             : 42  мс. (1,00 видеокадр)
Время предзагрузки промежутка            : 500  мс.
Библиотека кодирования                   : LAME3.99r
Настройки программы                      : -m s -V 4 -q 2 -lowpass 17 -b 128
 
Не забывайте говорить Спасибо. Не уходите с раздачи!   
Торрент: Зарегистрирован [12 июл 2018, 12:24] Для скачивания .torrent
необходима регистрация
Или скачать с помощью
MediaGet
Статус:
Проверен
 
.torrent скачан: 0 раз
Хэш: 606e47882bfe0ebdba65894bc897835f83f65ce3
Размер: 745.19 МБ (781 387 776 байт)
Стать Автором раздачи
 
 
Раздал: 0 байт
Скачал: 0 байт
Ратио: Inf.
Сообщения: 486962
Зарегистрирован: 17 апр 2014, 13:57


  • Похожие торренты
    Ответы
    Просмотры
    Последнее сообщение

Вернуться в Зарубежное кино

Ресурс не предоставляет электронные версии произведений, а занимается лишь коллекционированием и каталогизацией ссылок, присылаемых и публикуемых на форуме нашими читателями. Если вы являетесь правообладателем какого-либо представленного материала и не желаете чтобы ссылка на него находилась в нашем каталоге, свяжитесь с нами и мы незамедлительно удалим её. Файлы для обмена на трекере предоставлены пользователями сайта, и администрация не несёт ответственности за их содержание. Просьба не заливать файлы, защищенные авторскими правами, а также файлы нелегального содержания!
cron