Героический дуэт / Героическое трио / Heroic Du / Shuang xiong (Бенни Чан / Benny Chan) [2003, Гонконг, триллер, детектив, DVDRip] AVO (Антон Алексеев)

 
 Статистика раздачи 
Размер: 1.47 ГБ   |  Зарегистрирован: 12 июл 2018, 11:36   |   .torrent скачан: 0 раз
Сидеров: 1  [ 0 байт/сек ]     Личеров: 0  [ 0 байт/сек ]  
  

Героический дуэт / Героическое трио / Heroic Du / Shuang xiong (Бенни Чан / Benny Chan) [2003, Гонконг, триллер, детектив, DVDRip] AVO (Антон Алексеев)

Сообщение Nakazhu » 12 июл 2018, 14:48

Героический дуэт / Героическое трио / Heroic Du / Shuang xiong
Страна: Гонконг
Жанр: триллер, детектив
Год выпуска: 2003
Продолжительность: 01:40:46
Перевод: Авторский (одноголосый закадровый) Антон Алексеев
Субтитры: нет
Режиссер: Бенни Чан / Benny Chan
В ролях: Леон Лай, Экин Чэн, Френсис Нг, Карена Лам, Цзинлэй Сю, Энсон Люн, Рико Квок, Рэймонд Вон, Сэмюэл Пан
Описание: Полицейский детектив Кен сталкивается с необычным делом — его коллега и друг пробрался ночью в участок и поджег сейф с важными уликами, а следом за этим на допросе застрелился. Многое указывает на то, что несчастный пошел на преступление не по своей воле, а под воздействием гипноза, и чтобы пролить свет на ситуацию, Кен обращается за помощью к опытному гипнотизеру Джеку Лаю, который в данный момент находится в тюрьме...
Сэмпл: http://multi-up.com/1203620
Качество видео: DVDRip (Исходник - DVD9 / KinoZal))
Формат видео: AVI
Видео: XviD 73, 720x304, (2,35:1), 23,976 fps, 1634 Кбит/с, 8 бит, 0.31 bit/pixel
Аудио: Русский (АС3, 6 ch (Front: L C R, Side: L R, LFE), 48,0 KHz, 384 Kbps)
Код: Выделить всё
Общее
Полное имя                               : H:\Фильмы на трекер\Героический дуэт   (триллер, детектив  2003 год).avi
Формат                                   : AVI
Формат/Информация                        : Audio Video Interleave
Размер файла                             : 1,47 Гбайт
Продолжительность                        : 1 ч. 40 м.
Общий поток                              : 2093 Кбит/сек
Программа кодирования                    : VirtualDubMod 1.5.10.2 (build 2540/release)
Библиотека кодирования                   : VirtualDubMod build 2540/release
Видео
Идентификатор                            : 0
Формат                                   : MPEG-4 Visual
Профиль формата                          : Advanced Simple@L5
Параметр BVOP формата                    : 2
Параметр QPel формата                    : Нет
Параметр GMC формата                     : Без точки перехода
Параметр матрицы формата                 : Выборочная
Идентификатор кодека                     : XVID
Идентификатор кодека/Подсказка           : XviD
Продолжительность                        : 1 ч. 40 м.
Битрейт                                  : 1636 Кбит/сек
Ширина                                   : 704 пикселя
Высота                                   : 304 пикселя
Соотношение сторон                       : 2,35:1
Частота кадров                           : 23,976 (24000/1001) кадра/сек
Цветовое пространство                    : YUV
Субдискретизация насыщенности            : 4:2:0
Битовая глубина                          : 8 бит
Тип развёртки                            : Прогрессивная
Метод сжатия                             : С потерями
Бит/(Пиксели*Кадры)                      : 0.319
Размер потока                            : 1,15 Гбайт (78%)
Библиотека кодирования                   : XviD 73
Аудио
Идентификатор                            : 1
Формат                                   : AC-3
Формат/Информация                        : Audio Coding 3
Расширение режима                        : CM (complete main)
Параметр Endianness формата              : Big
Идентификатор кодека                     : 2000
Продолжительность                        : 1 ч. 40 м.
Вид битрейта                             : Постоянный
Битрейт                                  : 448 Кбит/сек
Каналы                                   : 6 каналов
Расположение каналов                     : Front: L C R, Side: L R, LFE
Частота                                  : 48,0 КГц
Частота кадров                           : 31,250 кадров/сек (1536 spf)
Метод сжатия                             : С потерями
Размер потока                            : 323 Мбайт (21%)
Выравнивание                             : Разделение по промежуткам
Продолжительность промежутка             : 42  мс. (1,00 видеокадр)
Время предзагрузки промежутка            : 500  мс.
 
Не забывайте говорить Спасибо. Не уходите с раздачи!   
Торрент: Зарегистрирован [12 июл 2018, 11:36] Скачать торрент
Скачать торрент
[ Размер 15.24 КБ / Просмотров 1 ]
Статус:
Проверен
 
.torrent скачан: 0 раз
Хэш: f878ad29b669cfb21067af52c9f16d525d541a7c
Размер: 1.47 ГБ (1 582 084 096 байт)
Стать Автором раздачи
 
 
Раздал: 0 байт
Скачал: 0 байт
Ратио: Inf.
Сообщения: 487468
Зарегистрирован: 17 апр 2014, 13:57


  • Похожие торренты
    Ответы
    Просмотры
    Последнее сообщение

Вернуться в Зарубежные фильмы 2001-2005 года

Ресурс не предоставляет электронные версии произведений, а занимается лишь коллекционированием и каталогизацией ссылок, присылаемых и публикуемых на форуме нашими читателями. Если вы являетесь правообладателем какого-либо представленного материала и не желаете чтобы ссылка на него находилась в нашем каталоге, свяжитесь с нами и мы незамедлительно удалим её. Файлы для обмена на трекере предоставлены пользователями сайта, и администрация не несёт ответственности за их содержание. Просьба не заливать файлы, защищенные авторскими правами, а также файлы нелегального содержания!
cron