Блоха в ухе / Floh im Ohr (Курт Вайлер / Kurt Weiler) [1970, ГДР, анимация, сатира, WEBRip] original + rus sub

 
 Статистика раздачи 
Размер: 184.52 МБ   |  Зарегистрирован: 12 июл 2018, 11:28   |   .torrent скачан: 0 раз
Сидеров: 1  [ 0 байт/сек ]     Личеров: 0  [ 0 байт/сек ]  
  

Блоха в ухе / Floh im Ohr (Курт Вайлер / Kurt Weiler) [1970, ГДР, анимация, сатира, WEBRip] original + rus sub

Сообщение Nakazhu » 12 июл 2018, 14:33

Блоха в ухе / Floh im Ohr
Страна: ГДР
Жанр: анимация, сатира
Год выпуска: 1970
Продолжительность: 00:10:52
Перевод: субтитры (переводчик - progulkin)
Субтитры: русские
Режиссёр: Курт Вайлер / Kurt Weiler
Описание: Травоядные животные неплохо откармливаются на специальной ферме, организованной лисом, волком и львом, но вскоре догадываются, что кормят их неспроста...
Доп. информация: Персонажи произносят реплики нарочито невнятно, поэтому перевод местами приблизительный
Качество видео: WEBRip
Формат видео: AVI
Видео: 2169 kbps, 640х480 (4:3), 25.000 fps, MPEG-4 Visual (XviD)
Аудио: 192 kbps, 44.1 kHz, 2 channels, MPEG Audio (MP3)
Формат субтитров: softsub (SRT)
Код: Выделить всё
General
Complete name                            : Floh im Ohr (1970).avi
Format                                   : AVI
Format/Info                              : Audio Video Interleave
File size                                : 185 MiB
Duration                                 : 10mn 52s
Overall bit rate                         : 2 371 Kbps
Writing application                      : VirtualDubMod 1.5.10.2 (build 2540/release)
Writing library                          : VirtualDub build 35491/release
Video
ID                                       : 0
Format                                   : MPEG-4 Visual
Format profile                           : Advanced Simple@L4
Format settings, BVOP                    : 2
Format settings, QPel                    : No
Format settings, GMC                     : No warppoints
Format settings, Matrix                  : Default (H.263)
Codec ID                                 : XVID
Codec ID/Hint                            : XviD
Duration                                 : 10mn 52s
Bit rate                                 : 2 169 Kbps
Width                                    : 640 pixels
Height                                   : 480 pixels
Display aspect ratio                     : 4:3
Frame rate                               : 25.000 fps
Color space                              : YUV
Chroma subsampling                       : 4:2:0
Bit depth                                : 8 bits
Scan type                                : Progressive
Compression mode                         : Lossy
Bits/(Pixel*Frame)                       : 0.282
Stream size                              : 169 MiB (91%)
Writing library                          : XviD 73
Audio
ID                                       : 1
Format                                   : MPEG Audio
Format version                           : Version 1
Format profile                           : Layer 3
Codec ID                                 : 55
Codec ID/Hint                            : MP3
Duration                                 : 10mn 52s
Bit rate mode                            : Constant
Bit rate                                 : 192 Kbps
Channel(s)                               : 2 channels
Sampling rate                            : 44.1 KHz
Compression mode                         : Lossy
Stream size                              : 14.9 MiB (8%)
Alignment                                : Split accross interleaves
Interleave, duration                     : 40 ms (1.00 video frame)
Interleave, preload duration             : 500 ms
1
00:00:01,180 --> 00:00:05,570
БЛОХА В УХЕ
2
00:00:22,550 --> 00:00:24,000
ОБЖОРНАЯ ФЕРМА
АО "Нобель-Рейнеке-Изегрим"
3
00:00:24,100 --> 00:00:26,400
Производство для Разведения и
Применения мирных Животных
4
00:00:26,740 --> 00:00:28,650
Одни животные поедают других животных.
5
00:00:28,860 --> 00:00:31,210
Упрощено, преувеличено, надуманно.
6
00:00:31,580 --> 00:00:33,610
Случайные совпадения преднамеренны.
7
00:00:42,300 --> 00:00:45,000
Как изысканно!
8
00:00:47,540 --> 00:00:49,430
Всегда свежее!
9
00:00:53,940 --> 00:00:55,850
Учтите это!
10
00:00:58,100 --> 00:01:01,200
Поглощайте это!
11
00:01:11,660 --> 00:01:14,660
Питайтесь. Угощайтесь.
12
00:01:15,180 --> 00:01:16,900
Насыщайтесь.
13
00:01:17,940 --> 00:01:20,650
Поправляйтесь!
14
00:01:21,520 --> 00:01:24,270
Не думайте, не задумывайтесь.
15
00:01:25,500 --> 00:01:28,380
Кладите в рот, проглатывайте.
16
00:01:29,340 --> 00:01:31,970
Ешьте, ешьте готовые блюда.
17
00:01:32,420 --> 00:01:36,290
Не оставляйте, доедайте их.
18
00:02:27,100 --> 00:02:28,340
ПРИЯТНОГО АППЕТИТА
 
Не забывайте говорить Спасибо. Не уходите с раздачи!   
Торрент: Зарегистрирован [12 июл 2018, 11:28] Скачать торрент
Скачать торрент
[ Размер 15.06 КБ / Просмотров 0 ]
Статус:
Проверен
 
.torrent скачан: 0 раз
Хэш: e937aa74f9fe2015c8dfc141f89819eacc13c28c
Размер: 184.52 МБ (193 484 314 байт)
Стать Автором раздачи
 
 
Раздал: 0 байт
Скачал: 0 байт
Ратио: Inf.
Сообщения: 487468
Зарегистрирован: 17 апр 2014, 13:57


  • Похожие торренты
    Ответы
    Просмотры
    Последнее сообщение

Вернуться в Арт-хаус и авторское кино

Ресурс не предоставляет электронные версии произведений, а занимается лишь коллекционированием и каталогизацией ссылок, присылаемых и публикуемых на форуме нашими читателями. Если вы являетесь правообладателем какого-либо представленного материала и не желаете чтобы ссылка на него находилась в нашем каталоге, свяжитесь с нами и мы незамедлительно удалим её. Файлы для обмена на трекере предоставлены пользователями сайта, и администрация не несёт ответственности за их содержание. Просьба не заливать файлы, защищенные авторскими правами, а также файлы нелегального содержания!
cron