Мастера меча онлайн: Альтернативная «Призрачная пуля» / Sword Art Online: Gun Gale Online [01-12 из 12] (2018) HDTVRip | Persona99

 
 Статистика раздачи 
Размер: 3.44 ГБ   |  Зарегистрирован: 12 июл 2018, 13:38   |   .torrent скачан: 0 раз
Сидеров: 1  [ 0 байт/сек ]     Личеров: 0  [ 0 байт/сек ]  
  

Мастера меча онлайн: Альтернативная «Призрачная пуля» / Sword Art Online: Gun Gale Online [01-12 из 12] (2018) HDTVRip | Persona99

Сообщение explosiveone » 12 июл 2018, 14:10

Страна: Япония
Год выпуска: 2018
Жанр: приключения, триллер, фантастика
Тип: TV
Продолжительность: ТВ (12 эп.), 00:24:00
Режиссер: Масаюки Сакой
Студия: Studio 3Hz

Описание:
Виртуальная онлайн игра «Мастера Меча Онлайн» вызвала волну негодования и протестов после обнародования СМИ информации о том, что гибель персонажа внутри игры приводила к гибели человека в реальности. Этот скандал привёл практически к краху зарождавшейся индустрии виртуальных компьютерных игр. Однако появление пакета обновлений призванных полностью обезопасить пользователей от хакерских атак во время игры, привело к новому всплеску популярности данного вида развлечения. В результате этого всё новые и новые игры стали появляться с бешеной скоростью. Одна из таких игр нашла преданных фанатов, благодаря мрачному миру и битвами между игроками при помощи стрелковых орудий и мечей. И название данной сверхпопулярной онлайн игры - Призрачная пуля.

Доп. информация:
Релиз GSGroup


Эта серия состоит из:
#1 Sword Art Online - ТВ (25 эп.), адаптация ранобэ, 2012
#2 Sword Art Online: Extra Edition - ТВ-спэшл, продолжение, 2013 (720)
#3 Sword Art Online II - ТВ (>24 эп.), продолжение, 2014
#4 Мастера меча онлайн (фильм) - п/ф, адаптация ранобэ, 2017
#5 Мастера меча онлайн: Алисизация - ТВ, продолжение, 2018 осень-2018
#6 Sword Art Online Alternative: Gun Gale Online - ТВ, адаптация ранобэ, 2018

Качество: HDTVRip
Тип релиза: Без хардсаба
Формат видео: AVI
Видео: XviD, 704x400, 1312 Kbps, 23.976 fps, 8 bits
Аудио 1: AC-3, 192 Kbps, 2 channels, 48.0 KHz Язык Русский (в составе контейнера) ; Озвучка: Любительский одноголосый: Persona99
Аудио 2: AC-3, 192 Kbps, 2 channels, 48.0 KHz Язык Японский ; Озвучка 2: оригинал
Субтитры: внешние ass, srt Язык субтитров русский ; Перевод: Перевод, редакция: Aero Оформление: Nika_Elrik
Код: Выделить всё
General
Complete name                            : Sword Art Online Alternative Gun Gale Online1-Sword Art Online ~Alternative Gun Gale Online~ [Persona99](XviD 704x400 AC3).rus.jap.avi
Format                                   : AVI
Format/Info                              : Audio Video Interleave
File size                                : 294 MiB
Duration                                 : 23mn 59s
Overall bit rate                         : 1 710 Kbps
Writing application                      : VirtualDubMod 1.5.10.2 (build 2540/release)
Writing library                          : VirtualDubMod build 2540/release

Video
ID                                       : 0
Format                                   : MPEG-4 Visual
Format profile                           : Advanced Simple@L5
Format settings, BVOP                    : 2
Format settings, QPel                    : No
Format settings, GMC                     : No warppoints
Format settings, Matrix                  : Default (H.263)
Codec ID                                 : XVID
Codec ID/Hint                            : XviD
Duration                                 : 23mn 59s
Bit rate                                 : 1 312 Kbps
Width                                    : 704 pixels
Height                                   : 400 pixels
Display aspect ratio                     : 16:9
Frame rate                               : 23.976 fps
Color space                              : YUV
Chroma subsampling                       : 4:2:0
Bit depth                                : 8 bits
Scan type                                : Progressive
Compression mode                         : Lossy
Bits/(Pixel*Frame)                       : 0.194
Stream size                              : 225 MiB (77%)
Writing library                          : XviD 67

Audio #1
ID                                       : 1
Format                                   : AC-3
Format/Info                              : Audio Coding 3
Mode extension                           : CM (complete main)
Format settings, Endianness              : Big
Codec ID                                 : 2000
Duration                                 : 23mn 59s
Bit rate mode                            : Constant
Bit rate                                 : 192 Kbps
Channel(s)                               : 2 channels
Channel positions                        : Front: L R
Sampling rate                            : 48.0 KHz
Compression mode                         : Lossy
Stream size                              : 33.0 MiB (11%)
Alignment                                : Split accross interleaves
Interleave, duration                     : 42 ms (1.00 video frame)
Interleave, preload duration             : 500 ms

Audio #2
ID                                       : 2
Format                                   : AC-3
Format/Info                              : Audio Coding 3
Mode extension                           : CM (complete main)
Format settings, Endianness              : Big
Codec ID                                 : 2000
Duration                                 : 23mn 59s
Bit rate mode                            : Constant
Bit rate                                 : 192 Kbps
Channel(s)                               : 2 channels
Channel positions                        : Front: L R
Sampling rate                            : 48.0 KHz
Compression mode                         : Lossy
Stream size                              : 33.0 MiB (11%)
Alignment                                : Split accross interleaves
Interleave, duration                     : 42 ms (1.00 video frame)
Interleave, preload duration             : 500 ms
01. Squad Jam
02. GGO
03. Fan Letter
04. Death Game
05. Leave the Last Battle to Me
06. SAO Loser
07. Second Squad Jam
08. Booby Trap
09. Ten-Minute Massacre
10. The Devil`s Comeback
11. Psycho Llenn
12. Applause

Семпл:
 
Не забывайте говорить Спасибо. Не уходите с раздачи!   
Торрент: Зарегистрирован [12 июл 2018, 13:38] Для скачивания .torrent
необходима регистрация
Или скачать с помощью
MediaGet
Статус:
Проверен
 
.torrent скачан: 0 раз
Хэш: bb7446cd65ec30630cc74f34e713f126a81f4b01
Размер: 3.44 ГБ (3 695 132 528 байт)
Стать Автором раздачи
 
 
Раздал: 100 ГБ
Скачал: 0 байт
Ратио: Seed.
Сообщения: 102007
Зарегистрирован: 09 апр 2015, 22:31


  • Похожие торренты
    Ответы
    Просмотры
    Последнее сообщение

Вернуться в Аниме (Основной)

Ресурс не предоставляет электронные версии произведений, а занимается лишь коллекционированием и каталогизацией ссылок, присылаемых и публикуемых на форуме нашими читателями. Если вы являетесь правообладателем какого-либо представленного материала и не желаете чтобы ссылка на него находилась в нашем каталоге, свяжитесь с нами и мы незамедлительно удалим её. Файлы для обмена на трекере предоставлены пользователями сайта, и администрация не несёт ответственности за их содержание. Просьба не заливать файлы, защищенные авторскими правами, а также файлы нелегального содержания!
cron