Битва за южную железную дорогу / План Барбаросса / Dvoboj za juznu prugu / Unternehmen Barbarossa (Здравко Велимирович / Zdravko Velimirovic) [1978, Германия, Югославия, военный, драма, DVDRip] AVO (Юрий Живов) + Original Ger

 
 Статистика раздачи 
Размер: 1.37 ГБ   |  Зарегистрирован: 12 июл 2018, 09:26   |   .torrent скачан: 0 раз
Сидеров: 1  [ 0 байт/сек ]     Личеров: 0  [ 0 байт/сек ]  
  

Битва за южную железную дорогу / План Барбаросса / Dvoboj za juznu prugu / Unternehmen Barbarossa (Здравко Велимирович / Zdravko Velimirovic) [1978, Германия, Югославия, военный, драма, DVDRip] AVO (Юрий Живов) + Original Ger

Сообщение Nakazhu » 12 июл 2018, 12:43

Битва за южную железную дорогу / План Барбаросса / Dvoboj za juznu prugu / Unternehmen Barbarossa
Страна: Германия, Югославия
Жанр: военный, драма
Год выпуска: 1978
Продолжительность: 01:14:12
Перевод: Авторский (одноголосый закадровый) Юрий Живов
Субтитры: нет
Оригинальная аудиодорожка: Немецкий
Режиссер: Здравко Велимирович / Zdravko Velimirovic
В ролях: Драгомир Боянич, Войя Мирич, Неда Спасоевич, Даница Ристовски, Растислав Йович, Марко Николич, Миролюб Алексич, Славко Штимац, Владан Живкови
Описание: С самого начала осуществления плана Барбаросса и нападения на СССР в июне 1941 года многие части Вермахта были переброшены из Югославии в Россию. Тем временем местные партизаны ушли в Балканские горы, чтобы готовиться к новой войне. Командовал ими до того никому не известный коммунист Иосиф Брос Тито. Действия его групп поначалу ограничивались нападением на Германские железнодорожные составы идущие на Восток и в Африку, в горных районах Маровары. Руководство партизанского фронта планировало также диверсионные акции против болгарских сторонников Гитлера. В результате этого — осенью 1941 года в Южной Сербии и Македонии все действующие отряды получили приказ — блокировать движение всех составов по железнодорожным линиям от Солоников до Софии...
Сэмпл: http://multi-up.com/1203608
Качество видео: DVDRip (Исходник - DVD5)
Формат видео: AVI
Видео: XviD 73, 640x496, (1,29:1), 25,000 fps, 2252 Кбит/с, 8 бит, 0.28 bit/pixel
Аудио: Русский (АС3, 2 ch (Front: L R), 48,0 KHz, 192 Kbps)
Аудио 2: Русский (АС3, 2 ch (Front: L R), 48,0 KHz, 192 Kbps)
Код: Выделить всё
Общее
Полное имя                               : \\User4\C\Битва за южную железную дорогу  (военный, драма 1978 год).avi
Формат                                   : AVI
Формат/Информация                        : Audio Video Interleave
Размер файла                             : 1,37 Гбайт
Продолжительность                        : 1 ч. 14 м.
Общий поток                              : 2651 Кбит/сек
Программа кодирования                    : VirtualDubMod 1.5.10.3 | www.virtualdub-fr.org || (build 2550/release)
Библиотека кодирования                   : VirtualDubMod build 2550/release
Видео
Идентификатор                            : 0
Формат                                   : MPEG-4 Visual
Профиль формата                          : Advanced Simple@L5
Параметр BVOP формата                    : 2
Параметр QPel формата                    : Нет
Параметр GMC формата                     : Без точки перехода
Параметр матрицы формата                 : Выборочная
Идентификатор кодека                     : XVID
Идентификатор кодека/Подсказка           : XviD
Продолжительность                        : 1 ч. 14 м.
Битрейт                                  : 2252 Кбит/сек
Ширина                                   : 640 пикселей
Высота                                   : 496 пикселей
Соотношение сторон                       : 1,290
Частота кадров                           : 25,000 кадров/сек
Цветовое пространство                    : YUV
Субдискретизация насыщенности            : 4:2:0
Битовая глубина                          : 8 бит
Тип развёртки                            : Прогрессивная
Метод сжатия                             : С потерями
Бит/(Пиксели*Кадры)                      : 0.284
Размер потока                            : 1,17 Гбайт (85%)
Библиотека кодирования                   : XviD 73
Аудио #1
Идентификатор                            : 1
Формат                                   : AC-3
Формат/Информация                        : Audio Coding 3
Расширение режима                        : CM (complete main)
Параметр Endianness формата              : Big
Идентификатор кодека                     : 2000
Продолжительность                        : 1 ч. 14 м.
Вид битрейта                             : Постоянный
Битрейт                                  : 192 Кбит/сек
Каналы                                   : 2 канала
Расположение каналов                     : Front: L R
Частота                                  : 48,0 КГц
Частота кадров                           : 31,250 кадров/сек (1536 spf)
Метод сжатия                             : С потерями
Размер потока                            : 102 Мбайт (7%)
Выравнивание                             : Разделение по промежуткам
Продолжительность промежутка             : 40  мс. (1,00 видеокадр)
Время предзагрузки промежутка            : 500  мс.
Аудио #2
Идентификатор                            : 2
Формат                                   : AC-3
Формат/Информация                        : Audio Coding 3
Расширение режима                        : CM (complete main)
Параметр Endianness формата              : Big
Идентификатор кодека                     : 2000
Продолжительность                        : 1 ч. 14 м.
Вид битрейта                             : Постоянный
Битрейт                                  : 192 Кбит/сек
Каналы                                   : 2 канала
Расположение каналов                     : Front: L R
Частота                                  : 48,0 КГц
Частота кадров                           : 31,250 кадров/сек (1536 spf)
Метод сжатия                             : С потерями
Размер потока                            : 102 Мбайт (7%)
Выравнивание                             : Разделение по промежуткам
Продолжительность промежутка             : 40  мс. (1,00 видеокадр)
Время предзагрузки промежутка            : 500  мс.
 
Не забывайте говорить Спасибо. Не уходите с раздачи!   
Торрент: Зарегистрирован [12 июл 2018, 09:26] Скачать торрент
Скачать торрент
[ Размер 14.27 КБ / Просмотров 1 ]
Статус:
Проверен
 
.torrent скачан: 0 раз
Хэш: e6c82884e5bfab0b3eeb634288dcede83880275f
Размер: 1.37 ГБ (1 475 393 536 байт)
Стать Автором раздачи
 
 
Раздал: 0 байт
Скачал: 0 байт
Ратио: Inf.
Сообщения: 487468
Зарегистрирован: 17 апр 2014, 13:57


  • Похожие торренты
    Ответы
    Просмотры
    Последнее сообщение

Вернуться в Зарубежное кино

Ресурс не предоставляет электронные версии произведений, а занимается лишь коллекционированием и каталогизацией ссылок, присылаемых и публикуемых на форуме нашими читателями. Если вы являетесь правообладателем какого-либо представленного материала и не желаете чтобы ссылка на него находилась в нашем каталоге, свяжитесь с нами и мы незамедлительно удалим её. Файлы для обмена на трекере предоставлены пользователями сайта, и администрация не несёт ответственности за их содержание. Просьба не заливать файлы, защищенные авторскими правами, а также файлы нелегального содержания!
cron