План / The Plan (2017) WEBRip-AVC | L2

 
 Статистика раздачи 
Размер: 1007.42 МБ   |  Зарегистрирован: 12 июл 2018, 11:38   |   .torrent скачан: 0 раз
Сидеров: 1  [ 0 байт/сек ]     Личеров: 0  [ 0 байт/сек ]  
  

План / The Plan (2017) WEBRip-AVC | L2

Сообщение Lester » 12 июл 2018, 12:22

Информация о фильме
Название: План
Оригинальное название: The Plan
Год выхода: 2017
Жанр: Ужасы
Режиссер: Паоло Демэттейс
В ролях: Джулио Мария Каваллини, Риккардо Ливермор, Дженнифер Мищати, Марчелло Спинетта и другие
О фильме:
Пятеро друзей по колледжу встречаются для поездки в старый замок в Пьемонте. Местные легенды гласят, что королева, жившая в этом замке, Джованна I, навлекла на регион засуху и голод. Прежде чем ее успели казнить местные жители, она записала проклятие в своем дневнике и покончила с жизнью. Молодых людей заинтриговала эта легенда, и они решили войти в закрытую комнату, где погибла Джованна, Там они находят ее дневник, высвобождая тем самым ее дух, жаждущий мести.



Страна: Италия, P.I.T. Production
Продолжительность: 01:23:49
Перевод: Любительский (двухголосый закадровый) | HiWay Grope

Файл
Кодек: MPEG-4 AVC/x.264
Качество: WEBRip
Видео: 852x480, 25.000 fps, ~1455 kbps, 0.142 bit/pixel
Звук:
Аудио rus: AC3, 48 kHz, 2 ch, 192 Kbps
Субтитры: отсутствуют

Реклама: присутствует

Семпл

General
Unique ID : 289499820882402885166507207070503427911 (0xD9CBA32C33A9CFB7F7DAE28EFCE45F47)
Complete name : D:The.Plan.2017.WEBRip-AVC.HiWayGropeThe.Plan.2017.WEBRip-AVC.HiWayGrope.mkv
Format : Matroska
Format version : Version 4 / Version 2
File size : 1 007 MiB
Duration : 1h 23mn
Overall bit rate : 1 680 Kbps
Encoded date : UTC 2018-07-12 06:59:34
Writing application : mkvmerge v21.0.0 ('Tardigrades Will Inherit The Earth') 64-bit
Writing library : libebml v1.3.5 + libmatroska v1.4.8

Video
ID : 1
Format : AVC
Format/Info : Advanced Video Codec
Format profile : Main@L4.1
Format settings, CABAC : Yes
Format settings, ReFrames : 4 frames
Codec ID : V_MPEG4/ISO/AVC
Duration : 1h 23mn
Bit rate : 1 455 Kbps
Width : 852 pixels
Height : 480 pixels
Display aspect ratio : 16:9
Frame rate mode : Constant
Frame rate : 25.000 fps
Standard : PAL
Color space : YUV
Chroma subsampling : 4:2:0
Bit depth : 8 bits
Scan type : Progressive
Bits/(Pixel*Frame) : 0.142
Stream size : 872 MiB (87%)
Language : English
Default : Yes
Forced : No
Color range : Limited
Color primaries : BT.601 NTSC
Transfer characteristics : BT.601
Matrix coefficients : BT.601

Audio
ID : 2
Format : AC-3
Format/Info : Audio Coding 3
Mode extension : CM (complete main)
Format settings, Endianness : Big
Codec ID : A_AC3
Duration : 1h 23mn
Bit rate mode : Constant
Bit rate : 192 Kbps
Channel(s) : 2 channels
Channel positions : Front: L R
Sampling rate : 48.0 KHz
Frame rate : 31.250 fps (1536 spf)
Compression mode : Lossy
Stream size : 115 MiB (11%)
Language : Russian
Default : Yes
Forced : No



Релиз от: HiWay Grope
 
Не забывайте говорить Спасибо. Не уходите с раздачи!   
Торрент: Зарегистрирован [12 июл 2018, 11:38] Для скачивания .torrent
необходима регистрация
Или скачать с помощью
MediaGet
Статус:
Проверен
 
.torrent скачан: 0 раз
Хэш: ebe10e8112ec5a471e2a75e0c11f38039ea4deac
Размер: 1007.42 МБ (1 056 352 731 байт)
Стать Автором раздачи
 
 
Раздал: 100 ГБ
Скачал: 0 байт
Ратио: Seed.
Сообщения: 120519
Зарегистрирован: 09 апр 2015, 23:00


  • Похожие торренты
    Ответы
    Просмотры
    Последнее сообщение

Вернуться в Зарубежное кино

Ресурс не предоставляет электронные версии произведений, а занимается лишь коллекционированием и каталогизацией ссылок, присылаемых и публикуемых на форуме нашими читателями. Если вы являетесь правообладателем какого-либо представленного материала и не желаете чтобы ссылка на него находилась в нашем каталоге, свяжитесь с нами и мы незамедлительно удалим её. Файлы для обмена на трекере предоставлены пользователями сайта, и администрация не несёт ответственности за их содержание. Просьба не заливать файлы, защищенные авторскими правами, а также файлы нелегального содержания!
cron