Закат в Запретном городе / Sunset in the Forbidden City (Ri luo zi jin cheng) (Линь Пай / Lin Pai) [1976, Тайвань, Боевые искусства, DVDRip] VO ((Chesterfield))

 
 Статистика раздачи 
Размер: 932.88 МБ   |  Зарегистрирован: 12 июл 2018, 09:01   |   .torrent скачан: 0 раз
Сидеров: 1  [ 0 байт/сек ]     Личеров: 0  [ 0 байт/сек ]  
  

Закат в Запретном городе / Sunset in the Forbidden City (Ri luo zi jin cheng) (Линь Пай / Lin Pai) [1976, Тайвань, Боевые искусства, DVDRip] VO ((Chesterfield))

Сообщение Nakazhu » 12 июл 2018, 12:13

Закат в Запретном городе / Sunset in the Forbidden City (Ri luo zi jin cheng) /
Страна: Тайвань
Жанр: Боевые искусства
Год выпуска: 1976
Продолжительность: 01:28:06
Перевод: Одноголосый закадровый (Chesterfiel )
Субтитры: нет
Режиссер: Линь Пай / Lin Pai
В ролях: Дориан Тань, Чиа Лин, Ма Кэй, Чан Вай-Лау, Лун Фэй, Ли Ин, Ши Тинкэнь, Вонг Юк-Пин, Клифф Чин, Ли Лун-Ям
Описание: Талантливый парень по имени Пай Му Тин приезжает в город чтобы устроиться телохранителем у местного главы господина Вонга. У Вонга есть причины беспокоиться за свою жизнь - большая часть жителей города относится к нему крайне негативно, такое отношение начинает распространяться и на Му Тина, пока тот внезапно не переходит на, казалось бы, сторону врагов...
Сэмпл: http://sendfile.su/1430268
Качество видео: DVDRip
Формат видео: AVI
Видео: MPEG4 Video (H264) 716x436 25fps 1277kbps
Аудио: Dolby AC3 48000Hz stereo 192kbps
Код: Выделить всё
General
Complete name                  : C:\Videos\Movavi Library\Sunset in the Forbidden City.avi
Format                         : AVI
Format/Info                    : Audio Video Interleave
File size                      : 933 MiB
Duration                       : 1h 28mn
Overall bit rate               : 1 480 Kbps
Movie name                     : VIDEO_DVD.Title1
Writing application            : Lavf56.40.101
Original source form/Name      : VIDEO_DVD
Video
ID                             : 0
Format                         : AVC
Format/Info                    : Advanced Video Codec
Format profile                 : Main@L3.0
Format settings, CABAC         : No
Format settings, ReFrames      : 4 frames
Format settings, GOP           : M=4, N=24
Codec ID                       : H264
Duration                       : 1h 28mn
Bit rate                       : 1 272 Kbps
Width                          : 716 pixels
Height                         : 436 pixels
Display aspect ratio           : 1.642
Frame rate                     : 25.000 fps
Color space                    : YUV
Chroma subsampling             : 4:2:0
Bit depth                      : 8 bits
Scan type                      : Progressive
Bits/(Pixel*Frame)             : 0.163
Stream size                    : 805 MiB (86%)
Writing library                : x264 core 148
Audio
ID                             : 1
Format                         : AC-3
Format/Info                    : Audio Coding 3
Mode extension                 : CM (complete main)
Codec ID                       : 2000
Duration                       : 1h 28mn
Bit rate mode                  : Constant
Bit rate                       : 192 Kbps
Channel(s)                     : 2 channels
Channel positions              : Front: L R
Sampling rate                  : 48.0 KHz
Bit depth                      : 16 bits
Compression mode               : Lossy
Stream size                    : 121 MiB (13%)
Alignment                      : Aligned on interleaves
Interleave, duration           : 32 ms (0.80 video frame)
 
Не забывайте говорить Спасибо. Не уходите с раздачи!   
Торрент: Зарегистрирован [12 июл 2018, 09:01] Для скачивания .torrent
необходима регистрация
Или скачать с помощью
MediaGet
Статус:
Проверен
 
.torrent скачан: 0 раз
Хэш: b430d9bace035c40578bda3e4a0991f07f445dc9
Размер: 932.88 МБ (978 192 918 байт)
Стать Автором раздачи
 
 
Раздал: 0 байт
Скачал: 0 байт
Ратио: Inf.
Сообщения: 487468
Зарегистрирован: 17 апр 2014, 13:57


  • Похожие торренты
    Ответы
    Просмотры
    Последнее сообщение

Вернуться в Зарубежное кино

Ресурс не предоставляет электронные версии произведений, а занимается лишь коллекционированием и каталогизацией ссылок, присылаемых и публикуемых на форуме нашими читателями. Если вы являетесь правообладателем какого-либо представленного материала и не желаете чтобы ссылка на него находилась в нашем каталоге, свяжитесь с нами и мы незамедлительно удалим её. Файлы для обмена на трекере предоставлены пользователями сайта, и администрация не несёт ответственности за их содержание. Просьба не заливать файлы, защищенные авторскими правами, а также файлы нелегального содержания!
cron