IndyLights 2018. Этап 6. Iowa 100. Гонка. Viasat Sport HD [10.07.2018, Автоспорт, DVB-S2 Remux 1080i, Рус/Анг]

 
 Статистика раздачи 
Размер: 3.25 ГБ   |  Зарегистрирован: 11 июл 2018, 21:47   |   .torrent скачан: 0 раз
Сидеров: 1  [ 0 байт/сек ]     Личеров: 0  [ 0 байт/сек ]  
  

IndyLights 2018. Этап 6. Iowa 100. Гонка. Viasat Sport HD [10.07.2018, Автоспорт, DVB-S2 Remux 1080i, Рус/Анг]

Сообщение Nakazhu » 12 июл 2018, 00:51

IndyLights 2018. Этап 6. Iowa 100. Гонка. Viasat Sport HD
Вид спорта: Автоспорт
О трассе: Iowa Speedway - это 0.875-мильный триовал с переменным бенкигом, который такой же как и на суперспидвеев. Один круг проходится примерно за 18 секунду. Самая короткая трасса тем не менее предъявляет выскокие требования к физической подготовки и сконцентрированности гонщиков. По всему периметру овала расположено второе поколение барьеров безопасности SAFER.
Автор рипа/записи: Ales
Качество: DVB-S2 Remux
Формат видео: MKV
Видео: H264, 1920x1080Ι, 25 кадр/c, 9 402 kb/s
Аудио: MP2 2.0, 48.0 KHz, 192 kb/s
Язык комментариев:Русский (Сергей Беднарук)
[*]Английский (NBCSN)Дата/Год выпуска: 10.07.2018
0:47:32
Код: Выделить всё
General
Unique ID                                : 216538871177803637751862010302556393596 (0xA2E7DE9EECFCC32897D65030C215D07C)
Complete name                            : E:\IndyLights2018\IndyLights.2018.R06.Iowa.100.Race.Viasat.Sport.HD.1080I.Rus.Eng.mkv
Format                                   : Matroska
Format version                           : Version 4 / Version 2
File size                                : 3.25 GiB
Duration                                 : 47 min 32 s
Overall bit rate                         : 9 794 kb/s
Encoded date                             : UTC 2018-07-11 16:58:20
Writing application                      : mkvmerge v23.0.0 ('The Bride Said No') 64-bit
Writing library                          : libebml v1.3.6 + libmatroska v1.4.9
Video
ID                                       : 1
Format                                   : AVC
Format/Info                              : Advanced Video Codec
Format profile                           : High@L4
Format settings                          : CABAC / 4 Ref Frames
Format settings, CABAC                   : Yes
Format settings, RefFrames               : 4 frames
Codec ID                                 : V_MPEG4/ISO/AVC
Duration                                 : 47 min 32 s
Bit rate                                 : 9 402 kb/s
Width                                    : 1 920 pixels
Height                                   : 1 080 pixels
Display aspect ratio                     : 16:9
Frame rate mode                          : Variable
Frame rate                               : 50.000 FPS
Original frame rate                      : 25.000 FPS
Standard                                 : Component
Color space                              : YUV
Chroma subsampling                       : 4:2:0
Bit depth                                : 8 bits
Scan type                                : Interlaced
Scan type, store method                  : Separated fields
Scan order                               : Top Field First
Bits/(Pixel*Frame)                       : 0.091
Stream size                              : 3.12 GiB (96%)
Default                                  : Yes
Forced                                   : No
Color range                              : Limited
Color primaries                          : BT.709
Transfer characteristics                 : BT.709
Matrix coefficients                      : BT.709
Audio #1
ID                                       : 2
Format                                   : MPEG Audio
Format version                           : Version 1
Format profile                           : Layer 2
Codec ID                                 : A_MPEG/L2
Codec ID/Hint                            : MP2
Duration                                 : 47 min 31 s
Bit rate mode                            : Constant
Bit rate                                 : 192 kb/s
Channel(s)                               : 2 channels
Sampling rate                            : 48.0 kHz
Frame rate                               : 41.667 FPS (1152 SPF)
Compression mode                         : Lossy
Delay relative to video                  : -22 ms
Stream size                              : 65.3 MiB (2%)
Language                                 : Russian
Default                                  : Yes
Forced                                   : No
Audio #2
ID                                       : 3
Format                                   : MPEG Audio
Format version                           : Version 1
Format profile                           : Layer 2
Codec ID                                 : A_MPEG/L2
Codec ID/Hint                            : MP2
Duration                                 : 47 min 31 s
Bit rate mode                            : Constant
Bit rate                                 : 192 kb/s
Channel(s)                               : 2 channels
Sampling rate                            : 48.0 kHz
Frame rate                               : 41.667 FPS (1152 SPF)
Compression mode                         : Lossy
Delay relative to video                  : -22 ms
Stream size                              : 65.3 MiB (2%)
Language                                 : English
Default                                  : No
Forced                                   : No
 
Не забывайте говорить Спасибо. Не уходите с раздачи!   
Торрент: Зарегистрирован [11 июл 2018, 21:47] Для скачивания .torrent
необходима регистрация
Или скачать с помощью
MediaGet
Статус:
Проверен
 
.torrent скачан: 0 раз
Хэш: 102fbc1516b60edfab3b6ea8afe6b9ecac101144
Размер: 3.25 ГБ (3 491 684 108 байт)
Стать Автором раздачи
 
 
Раздал: 0 байт
Скачал: 0 байт
Ратио: Inf.
Сообщения: 486736
Зарегистрирован: 17 апр 2014, 13:57


  • Похожие торренты
    Ответы
    Просмотры
    Последнее сообщение

Вернуться в Автоспорт

Ресурс не предоставляет электронные версии произведений, а занимается лишь коллекционированием и каталогизацией ссылок, присылаемых и публикуемых на форуме нашими читателями. Если вы являетесь правообладателем какого-либо представленного материала и не желаете чтобы ссылка на него находилась в нашем каталоге, свяжитесь с нами и мы незамедлительно удалим её. Файлы для обмена на трекере предоставлены пользователями сайта, и администрация не несёт ответственности за их содержание. Просьба не заливать файлы, защищенные авторскими правами, а также файлы нелегального содержания!
cron