Тихое место / A Quiet Place (2018) BDRip 720p | iTunes

 
 Статистика раздачи 
Размер: 3.79 ГБ   |  Зарегистрирован: 11 июл 2018, 23:50   |   .torrent скачан: 0 раз
Сидеров: 1  [ 0 байт/сек ]     Личеров: 0  [ 0 байт/сек ]  
  

Тихое место / A Quiet Place (2018) BDRip 720p | iTunes

Сообщение Lester » 12 июл 2018, 00:40

Информация о фильме
Название: Тихое место
Оригинальное название: A Quiet Place
Год выхода: 2018
Жанр: ужасы, фантастика, триллер, драма
Режиссер: Джон Красински
В ролях: Эмили Блант, Джон Красински, Ноа Джуп, Милли Симмондс, Леон Рассом, Кейд Вудворд, Дорис МакКарти

О фильме:
Семья с двумя детьми живёт на отдалённой ферме. Казалось бы, жизнь этих людей совершенно не отличается от жизни других таких семей, но они живут в месте, которое наполнено ужасными монстрами, реагирующими на любой звук. Семейство разучило целый комплекс специальных жестов, которые помогают им общаться друг с другом, не издавая ни единого звука. Кроме того, каждый из членов семьи должен очень тихо передвигаться, чтобы опасные существа их не услышали. Однако дом, где живут дети, не может быть самым тихим местом на земле.



Страна: США
Продолжительность: 01:30:14
Перевод: Профессиональный (дублированный) iTunes

Файл
Формат: MKV
Видео: 1280x534 at 23.976 fps, MPEG-4 AVC, ~5000 kbps avg
Аудио#1: Russian: 48 kHz, AC3, 3/2 (L,C,R,l,r) + LFE ch, ~384.00 kbps avg
Аудио#2: English: 48 kHz, AC3, 3/2 (L,C,R,l,r) + LFE ch, ~640.00 kbps avg
Cубтитры: Русские, английские

Релиз от: Werecut production

General
Unique ID : 198831016285856487443422295248295956051 (0x959575F7E473CA759270707245700E53)
Complete name : A.Quiet.Place.2018.BDRip.720p.mkv
Format : Matroska
Format version : Version 2
File size : 3.79 GiB
Duration : 1 h 30 min
Overall bit rate : 6 016 kb/s
Movie name : A Quiet Place 2018 OT werecut PRODUCTION
Encoded date : UTC 2018-07-11 19:40:22
Writing application : mkvmerge v2.9.9 ('Tutu') built on Nov 25 2009 21:13:32
Writing library : libebml v0.7.9 + libmatroska v0.8.1

Video
ID : 1
Format : AVC
Format/Info : Advanced Video Codec
Format profile : High@L4.1
Format settings : CABAC / 12 Ref Frames
Format settings, CABAC : Yes
Format settings, RefFrames : 12 frames
Codec ID : V_MPEG4/ISO/AVC
Duration : 1 h 30 min
Bit rate : 5 000 kb/s
Width : 1 280 pixels
Height : 534 pixels
Display aspect ratio : 2.40:1
Frame rate mode : Constant
Frame rate : 23.976 (24000/1001) FPS
Color space : YUV
Chroma subsampling : 4:2:0
Bit depth : 8 bits
Scan type : Progressive
Bits/(Pixel*Frame) : 0.305
Stream size : 3.07 GiB (81%)
Writing library : x264 core 148 r2705 3f5ed56
Encoding settings : cabac=1 / ref=12 / deblock=1:-2:-2 / analyse=0x3:0x133 / me=umh / subme=11 / psy=1 / psy_rd=1.05:0.05 / mixed_ref=1 / me_range=48 / chroma_me=1 / trellis=2 / 8x8dct=1 / cqm=0 / deadzone=21,11 / fast_pskip=0 / chroma_qp_offset=-3 / threads=12 / lookahead_threads=2 / sliced_threads=0 / nr=0 / decimate=0 / interlaced=0 / bluray_compat=0 / constrained_intra=0 / bframes=8 / b_pyramid=2 / b_adapt=2 / b_bias=0 / direct=3 / weightb=1 / open_gop=0 / weightp=2 / keyint=240 / keyint_min=23 / scenecut=40 / intra_refresh=0 / rc_lookahead=50 / rc=2pass / mbtree=0 / bitrate=5000 / ratetol=1.0 / qcomp=0.60 / qpmin=0 / qpmax=51 / qpstep=4 / cplxblur=20.0 / qblur=0.5 / vbv_maxrate=50000 / vbv_bufsize=62500 / nal_hrd=none / filler=0 / ip_ratio=1.40 / pb_ratio=1.30 / aq=3:0.80
Language : English
Default : No
Forced : No

Audio #1
ID : 2
Format : AC-3
Format/Info : Audio Coding 3
Codec ID : A_AC3
Duration : 1 h 30 min
Bit rate mode : Constant
Bit rate : 384 kb/s
Channel(s) : 6 channels
Channel positions : Front: L C R, Side: L R, LFE
Sampling rate : 48.0 kHz
Frame rate : 31.250 FPS (1536 SPF)
Bit depth : 16 bits
Compression mode : Lossy
Stream size : 248 MiB (6%)
Title : Дубляж
Language : Russian
Service kind : Complete Main
Default : Yes
Forced : Yes

Audio #2
ID : 3
Format : AC-3
Format/Info : Audio Coding 3
Codec ID : A_AC3
Duration : 1 h 30 min
Bit rate mode : Constant
Bit rate : 640 kb/s
Channel(s) : 6 channels
Channel positions : Front: L C R, Side: L R, LFE
Sampling rate : 48.0 kHz
Frame rate : 31.250 FPS (1536 SPF)
Bit depth : 16 bits
Compression mode : Lossy
Stream size : 413 MiB (11%)
Language : English
Service kind : Complete Main
Default : No
Forced : No

Text #1
ID : 4
Format : UTF-8
Codec ID : S_TEXT/UTF8
Codec ID/Info : UTF-8 Plain Text
Language : Russian
Default : Yes
Forced : Yes

Text #2
ID : 5
Format : UTF-8
Codec ID : S_TEXT/UTF8
Codec ID/Info : UTF-8 Plain Text
Language : Russian
Default : No
Forced : No

Text #3
ID : 6
Format : UTF-8
Codec ID : S_TEXT/UTF8
Codec ID/Info : UTF-8 Plain Text
Language : English
Default : No
Forced : No

Menu
00:00:00.000 : en:00:00:00.000
00:10:19.160 : en:00:10:19.160
00:14:38.044 : en:00:14:38.044
00:21:52.937 : en:00:21:52.937
00:25:09.717 : en:00:25:09.717
00:31:05.197 : en:00:31:05.197
00:36:23.431 : en:00:36:23.431
00:43:47.333 : en:00:43:47.333
00:47:42.735 : en:00:47:42.735
00:53:48.225 : en:00:53:48.225
01:00:31.461 : en:01:00:31.461
01:05:55.410 : en:01:05:55.410
01:10:57.879 : en:01:10:57.879
01:15:29.150 : en:01:15:29.150
01:23:47.314 : en:01:23:47.314


 
Не забывайте говорить Спасибо. Не уходите с раздачи!   
Торрент: Зарегистрирован [11 июл 2018, 23:50] Скачать торрент
Скачать торрент
[ Размер 19.86 КБ / Просмотров 1 ]
Статус:
Проверен
 
.torrent скачан: 0 раз
Хэш: f6ac705a29670a7f553c8f9a8232d1366b18319b
Размер: 3.79 ГБ (4 072 115 462 байт)
Стать Автором раздачи
 
 
Раздал: 100 ГБ
Скачал: 0 байт
Ратио: Seed.
Сообщения: 122307
Зарегистрирован: 09 апр 2015, 23:00


  • Похожие торренты
    Ответы
    Просмотры
    Последнее сообщение

Вернуться в Зарубежное кино

Ресурс не предоставляет электронные версии произведений, а занимается лишь коллекционированием и каталогизацией ссылок, присылаемых и публикуемых на форуме нашими читателями. Если вы являетесь правообладателем какого-либо представленного материала и не желаете чтобы ссылка на него находилась в нашем каталоге, свяжитесь с нами и мы незамедлительно удалим её. Файлы для обмена на трекере предоставлены пользователями сайта, и администрация не несёт ответственности за их содержание. Просьба не заливать файлы, защищенные авторскими правами, а также файлы нелегального содержания!
cron