Страница 1 из 1

Чёрная курица, или подземные жители (1980) DVDRip-AVC от KORSAR

СообщениеДобавлено: 11 июл 2018, 23:21
graf_t
Информация о фильме
Название: Чёрная курица, или подземные жители
Год выпуска: 1980
Жанр: Фэнтези, драма, семейный
Режиссер: Виктор Гресь
В ролях: Виталий Сидлецкий, Лариса Кадочникова, Аристарх Ливанов, Альберт Филозов, Валентин Гафт, Евгений Евстигнеев, Виолетта Жухимович, Владимир Кашпур, Николай Сектименко, Людмила Сосюра, Анатолий Столбов, Алексей Черствов, Антон Артеменко, Владимир Сошальский, Эльвира Осипова, Марк Гресь, Кирилл Батурин

О фильме: Экранизация повести-сказки Антония Погорельского.
В петербургском пансионе для Алеши началась новая, без привычного родительского внимания, жизнь. Тоскуя по дому, мальчик создал в своем воображении сказочный мир подземных жителей - с тайной, королем и подданными, очень похожими на окруживших его людей. Не сумев сохранить в реальной жизни тайну подземных жителей, Алеша потерял их навсегда.



Выпущено: СССР, Киностудия им. А. Довженко
Продолжительность: 01:09:24
Перевод: Не требуется

Файл
Качество: DVDRip-AVC
Видео: MPEG-4 AVC, 2070 Кбит/с, 700x572@746x572, 25.000 Кадр/с
Аудио: AC3, 6 ch, 384 Кбит/сек
Субтитры: Нет
Навигация по главам: Есть

Релиз от:



x264 [info]: frame I:484 Avg QP:15.86 size: 46607
x264 [info]: frame P:23340 Avg QP:17.10 size: 22911
x264 [info]: frame B:80278 Avg QP:18.90 size: 6533

======================================

Общее
Уникальный идентификатор : 250003553453464284199856253475098093492 (0xBC14EED7C5B62F1AA8C683666D2667B4)
Полное имя : Chernaya.kurica.1980.DVDRip.AVC.KORSAR.mkv
Формат : Matroska
Версия формата : Version 2
Размер файла : 1,19 Гбайт
Продолжительность : 1 ч. 9 м.
Общий поток : 2456 Кбит/сек
Дата кодирования : UTC 2017-01-17 15:23:28
Программа кодирования : mkvmerge v3.4.0 ('Rapunzel') сборка от May 15 2010 09:38:20
Библиотека кодирования : libebml v0.8.0 + libmatroska v0.9.0

Видео
Идентификатор : 1
Формат : AVC
Формат/Информация : Advanced Video Codec
Профиль формата : High@L4.1
Параметр CABAC формата : Да
Параметр ReFrames формата : 16 кадров
Идентификатор кодека : V_MPEG4/ISO/AVC
Продолжительность : 1 ч. 9 м.
Битрейт : 2070 Кбит/сек
Ширина : 700 пикселей
Высота : 572 пикселя
Соотношение сторон : 4:3
Соотношение сторон в оригинале : 4:3
Режим частоты кадров : Постоянный
Частота кадров : 25,000 кадров/сек
Цветовое пространство : YUV
Субдискретизация насыщенности : 4:2:0
Битовая глубина : 8 бит
Тип развёртки : Прогрессивная
Бит/(Пиксели*Кадры) : 0.207
Размер потока : 1004 Мбайт (82%)
Библиотека кодирования : x264 core 148 r2638 7599210
Настройки программы : cabac=1 / ref=16 / deblock=1:-2:-2 / analyse=0x3:0x133 / me=umh / subme=11 / psy=1 / psy_rd=1.00:0.10 / mixed_ref=1 / me_range=48 / chroma_me=1 / trellis=2 / 8x8dct=1 / cqm=0 / deadzone=21,11 / fast_pskip=0 / chroma_qp_offset=-3 / threads=6 / lookahead_threads=1 / sliced_threads=0 / nr=0 / decimate=0 / interlaced=0 / bluray_compat=0 / constrained_intra=0 / bframes=16 / b_pyramid=2 / b_adapt=2 / b_bias=0 / direct=3 / weightb=1 / open_gop=0 / weightp=2 / keyint=250 / keyint_min=25 / scenecut=40 / intra_refresh=0 / rc_lookahead=40 / rc=2pass / mbtree=0 / bitrate=2070 / ratetol=1.0 / qcomp=0.60 / qpmin=0 / qpmax=69 / qpstep=4 / cplxblur=20.0 / qblur=0.5 / vbv_maxrate=50000 / vbv_bufsize=62500 / nal_hrd=none / filler=0 / ip_ratio=1.40 / pb_ratio=1.30 / aq=1:1.00
Default : Нет
Forced : Нет

Аудио
Идентификатор : 2
Формат : AC-3
Формат/Информация : Audio Coding 3
Расширение режима : CM (complete main)
Параметр Endianness формата : Big
Идентификатор кодека : A_AC3
Продолжительность : 1 ч. 9 м.
Вид битрейта : Постоянный
Битрейт : 384 Кбит/сек
Каналы : 6 каналов
Расположение каналов : Front: L C R, Side: L R, LFE
Частота : 48,0 КГц
Частота кадров : 31,250 кадров/сек (1536 spf)
Битовая глубина : 16 бит
Метод сжатия : С потерями
Размер потока : 191 Мбайт (16%)
Default : Да
Forced : Нет

Меню
00:00:00.000 : en:Глава 1
00:04:49.560 : en:Глава 2
00:10:05.880 : en:Глава 3
00:17:03.120 : en:Глава 4
00:22:12.240 : en:Глава 5
00:29:00.960 : en:Глава 6
00:36:32.520 : en:Глава 7
00:44:05.880 : en:Глава 8
00:49:12.720 : en:Глава 9
00:55:06.840 : en:Глава 10
01:01:26.880 : en:Глава 11
01:06:22.320 : en:Глава 12
01:09:23.160 : en:Chapter 13