Страница 1 из 1

Прогулка по Элисте (Алексей Костин) [2010, путешествия и туризм, SATRip]

СообщениеДобавлено: 11 июл 2018, 22:47
Nakazhu
Прогулка по Элисте
Дата/Год выпуска: 2010
Страна
: Россия
Жанр: путешествия и туризм
Продолжительность: 00:37:02
Перевод: Не требуется
Русские субтитры: нет
Оригинальная аудиодорожка: русский
Режиссер: Алексей Костин
Телеканал: RTG TV
Описание: Элиста расположена на юге России. Ее название переводится как «песчаный». И это неслучайно. Элиста выросла на песчаных просторах Ергенинской возвышенности, в самом центре калмыцких степей. Расположение столицы Калмыкии очень удачное: если проехать около трехсот километров в любом направлении, обязательно приедешь в какой-нибудь крупный город: Астрахань, Волгоград или Ставрополь. До Москвы, правда, чуть подальше - 1200км, или 2 часа полета. Датой основания Элисты считается 1865 год. За сто сорок с небольшим лет из маленького поселка Элиста превратилась в большой город со всеми необходимыми атрибутами: театрами, музеями, магазинами, стадионом. Зрителей ждет встреча с неординарной личностью - главой республики Калмыкия и по совместительству президентом международной ассоциации шахматистов ФИДЕ - Кирсаном Илюмжиновым.
качество: SATRip
формат: AVI
Видео: MPEG4, XviD, 704x528 (4:3), 25.000 fps, 1 650 Kbps (0.178 bit/pixel)
Аудио: MP3, 48.0 KHz, 2 ch, 128 Kbps, CBR
Код: Выделить всё
General
Complete name                            : C:\Users\User\Downloads\Прогулка по Элисте.avi
Format                                   : AVI
Format/Info                              : Audio Video Interleave
File size                                : 473 MiB
Duration                                 : 37mn 2s
Overall bit rate                         : 1 787 Kbps
Writing application                      : VirtualDubMod 1.5.10.3 | www.virtualdub-fr.org || (build 2550/release)
Writing library                          : VirtualDubMod build 2550/release
Video
ID                                       : 0
Format                                   : MPEG-4 Visual
Format profile                           : Advanced Simple@L5
Format settings, BVOP                    : 1
Format settings, QPel                    : No
Format settings, GMC                     : No warppoints
Format settings, Matrix                  : Default (H.263)
Codec ID                                 : XVID
Codec ID/Hint                            : XviD
Duration                                 : 37mn 2s
Bit rate                                 : 1 650 Kbps
Width                                    : 704 pixels
Height                                   : 528 pixels
Display aspect ratio                     : 4:3
Frame rate                               : 25.000 fps
Color space                              : YUV
Chroma subsampling                       : 4:2:0
Bit depth                                : 8 bits
Scan type                                : Progressive
Compression mode                         : Lossy
Bits/(Pixel*Frame)                       : 0.178
Stream size                              : 437 MiB (92%)
Writing library                          : XviD 1.2.1 (UTC 2008-12-04)
Audio
ID                                       : 1
Format                                   : MPEG Audio
Format version                           : Version 1
Format profile                           : Layer 3
Codec ID                                 : 55
Codec ID/Hint                            : MP3
Duration                                 : 37mn 2s
Bit rate mode                            : Constant
Bit rate                                 : 128 Kbps
Channel(s)                               : 2 channels
Sampling rate                            : 48.0 KHz
Compression mode                         : Lossy
Stream size                              : 33.9 MiB (7%)
Alignment                                : Aligned on interleaves
Interleave, duration                     : 40 ms (1.00 video frame)
Interleave, preload duration             : 504 ms
Writing library                          : LAME3.98r
Encoding settings                        : -m s -V 4 -q 2 -lowpass 17 -b 128