Нанятые для убийства / Hired to Kill (Нико Масторакис / Nico Mastorakis, Питер Рейдер / Peter Rader) [1990, США, боевик, триллер, BDRemux 1080p] Dub (Варус Видео) + AVO (Вартан Дохалов) + AVO (Юрий Немахов) + Sub Eng + Original Eng

 
 Статистика раздачи 
Размер: 24.67 ГБ   |  Зарегистрирован: 26 июн 2018, 16:55   |   .torrent скачан: 0 раз
Сидеров: 1  [ 0 байт/сек ]     Личеров: 0  [ 0 байт/сек ]  
  

Нанятые для убийства / Hired to Kill (Нико Масторакис / Nico Mastorakis, Питер Рейдер / Peter Rader) [1990, США, боевик, триллер, BDRemux 1080p] Dub (Варус Видео) + AVO (Вартан Дохалов) + AVO (Юрий Немахов) + Sub Eng + Original Eng

Сообщение Nakazhu » 11 июл 2018, 22:02

Нанятые для убийства / Hired to Kill
Страна: США
Жанр: боевик, триллер
Год выпуска: 1990
Продолжительность: 01:36:28
Перевод 1: Профессиональный (дублированный) Варус Видео
Перевод 2: Авторский (одноголосый закадровый) Вартан Дохалов
Перевод 3: Авторский (одноголосый закадровый) Юрий Немахов
Субтитры: английские
Оригинальная аудиодорожка: английский
Режиссер: Нико Масторакис / Nico Mastorakis, Питер Рейдер / Peter Rader
В ролях: Брайан Томпсон, Оливер Рид, Джордж Кеннеди, Хосе Феррер, Мишель Моффетт, Барбара Нивен, Джордана Капра, Кендалл Конрад, Ким Лонсдэйл, Джуд Муссеттер
Описание: Убийце-профессионалу Фрэнку Райену для выполнения чрезвычайно важного и опасного задания необходимо проникнуть в некое государство Сайпра известное в мире своим кровавым тоталитарно-диктаторским режимом и зверствующей контрразведкой. Сочиняется шикарная легенда — и Райен становится молодым талантливым художником-модельером Сесилом Торнтоном который вместе со своей труппой манекенщиц приезжает в Сайпру для демонстрации новой коллекции одежды.

Автор рипа - Атлас31
Релиз от -
Тип релиза: BDRemux 1080p
Контейнер: MKV
Видео: MPEG-4 AVC / 1920x1080 (16:9) / 32979 kbps / 24,000 fps / High@L4.1
Аудио 1: Russian / AC3 / 48 kHz / 2.0 Ch / 192 kbps / 16 bit / Варус Видео
Аудио 2: Russian / AC3 / 48 kHz / 2.0 Ch / 192 kbps / 16 bit / Вартан Дохалов
Аудио 3: Russian / DTS-HD MA / 48 kHz / 2.0 Ch / 1536 kbps / 16 bit / Юрий Немахов
Аудио 4: English / LPCM Audio / 2.0 / 48 kHz / 1536 kbps / 16-bit / Original
General
Unique ID : 244774442812240566141290542685383363371 (0xB825D7C88263318DB2798D5B2A310B2B)
Format : Matroska
Format version : Version 2
File size : 24.7 GiB
Duration : 1h 36mn
Overall bit rate mode : Variable
Overall bit rate : 36.6 Mbps
Movie name : Hired.to.Kill.1990.-=Атлас31=-
Encoded date : UTC 2018-07-11 02:15:16
Writing application : mkvmerge v7.8.0 ('River Man') 32bit built on Apr 3 2015 12:11:22
Writing library : libebml v1.3.1 + libmatroska v1.4.2
Video
ID : 1
Format : AVC
Format/Info : Advanced Video Codec
Format profile : High@L4.1
Format settings, CABAC : Yes
Format settings, ReFrames : 4 frames
Codec ID : V_MPEG4/ISO/AVC
Duration : 1h 36mn
Bit rate mode : Variable
Maximum bit rate : 35.0 Mbps
Width : 1 920 pixels
Height : 1 080 pixels
Display aspect ratio : 16:9
Frame rate mode : Constant
Frame rate : 24.000 fps
Standard : NTSC
Color space : YUV
Chroma subsampling : 4:2:0
Bit depth : 8 bits
Scan type : Progressive
Title : -=Атлас31=-
Language : English
Default : Yes
Forced : No
Color primaries : BT.709
Transfer characteristics : BT.709
Matrix coefficients : BT.709
Color range : Limited
Audio #1
ID : 2
Format : AC-3
Format/Info : Audio Coding 3
Mode extension : CM (complete main)
Format settings, Endianness : Big
Codec ID : A_AC3
Duration : 1h 36mn
Bit rate mode : Constant
Bit rate : 192 Kbps
Channel(s) : 2 channels
Channel positions : Front: L R
Sampling rate : 48.0 KHz
Bit depth : 16 bits
Compression mode : Lossy
Stream size : 132 MiB (1%)
Title : DUB (Варус Видео)
Language : Russian
Default : Yes
Forced : No
Audio #2
ID : 3
Format : AC-3
Format/Info : Audio Coding 3
Mode extension : CM (complete main)
Format settings, Endianness : Big
Codec ID : A_AC3
Duration : 1h 36mn
Bit rate mode : Constant
Bit rate : 192 Kbps
Channel(s) : 2 channels
Channel positions : Front: L R
Sampling rate : 48.0 KHz
Bit depth : 16 bits
Compression mode : Lossy
Stream size : 132 MiB (1%)
Title : AVO (Вартан Дохалов)
Language : Russian
Default : No
Forced : No
Audio #3
ID : 4
Format : DTS
Format/Info : Digital Theater Systems
Format profile : MA / Core
Mode : 16
Format settings, Endianness : Big
Codec ID : A_DTS
Duration : 1h 36mn
Bit rate mode : Variable
Bit rate : Unknown / 1 509 Kbps
Channel(s) : 2 channels
Channel positions : Front: L R
Sampling rate : 48.0 KHz
Bit depth : 16 bits
Compression mode : Lossless / Lossy
Title : AVO (Юрий Немахов)
Language : Russian
Default : No
Forced : No
Audio #4
ID : 5
Format : PCM
Codec ID : A_PCM/INT/LIT
Duration : 1h 36mn
Bit rate mode : Constant
Channel(s) : 2 channels
Sampling rate : 48.0 KHz
Bit depth : 16 bits
Language : English
Default : No
Forced : No
Text
ID : 6
Format : UTF-8
Codec ID : S_TEXT/UTF8
Codec ID/Info : UTF-8 Plain Text
Title : SDH
Language : English
Default : No
Forced : No
Menu
00:00:00.000 : en:Chapter 1
00:07:22.541 : en:Chapter 2
00:11:37.416 : en:Chapter 3
00:22:28.416 : en:Chapter 4
00:30:41.500 : en:Chapter 5
00:39:43.500 : en:Chapter 6
00:48:25.125 : en:Chapter 7
00:57:25.208 : en:Chapter 8
01:05:20.291 : en:Chapter 9
01:09:06.333 : en:Chapter 10
01:21:08.083 : en:Chapter 11
01:33:26.083 : en:Chapter 12
11.07.2018. Торрент файл перезалит добавлена дорожка с Юрий Немахов.
 
Не забывайте говорить Спасибо. Не уходите с раздачи!   
Торрент: Зарегистрирован [26 июн 2018, 16:55] Для скачивания .torrent
необходима регистрация
Или скачать с помощью
MediaGet
Статус:
Проверен
 
.torrent скачан: 0 раз
Хэш: a776629e9e56fd753652657d9e97808e76fce0f0
Размер: 24.67 ГБ (26 489 947 911 байт)
Стать Автором раздачи
 
 
Раздал: 0 байт
Скачал: 0 байт
Ратио: Inf.
Сообщения: 486736
Зарегистрирован: 17 апр 2014, 13:57


  • Похожие торренты
    Ответы
    Просмотры
    Последнее сообщение

Вернуться в HD Video на модерации

Ресурс не предоставляет электронные версии произведений, а занимается лишь коллекционированием и каталогизацией ссылок, присылаемых и публикуемых на форуме нашими читателями. Если вы являетесь правообладателем какого-либо представленного материала и не желаете чтобы ссылка на него находилась в нашем каталоге, свяжитесь с нами и мы незамедлительно удалим её. Файлы для обмена на трекере предоставлены пользователями сайта, и администрация не несёт ответственности за их содержание. Просьба не заливать файлы, защищенные авторскими правами, а также файлы нелегального содержания!
cron