Старые Воры VIII: Партизанская Дочка / Star Wars: Episode VIII - The Last Jedi [2018, комедия, пародия, фантастика, смешной перевод, HDRip][ТО Гонфильм] MVO

 
 Статистика раздачи 
Размер: 2.1 ГБ   |  Зарегистрирован: 11 июл 2018, 13:33   |   .torrent скачан: 0 раз
Сидеров: 1  [ 0 байт/сек ]     Личеров: 0  [ 0 байт/сек ]  
  

Старые Воры VIII: Партизанская Дочка / Star Wars: Episode VIII - The Last Jedi [2018, комедия, пародия, фантастика, смешной перевод, HDRip][ТО Гонфильм] MVO

Сообщение Nakazhu » 11 июл 2018, 16:51

Старые Воры VIII: Партизанская Дочка / Star Wars: Episode VIII - The Last Jedi
Год выпуска: 2018
Страна: CША
Жанр: комедия, пародия, фантастика, юмористический перевод
Продолжительность: 02:18:00
Перевод: любительский многоголосый (смешной перевод ТО Гонфильм)
Режиссер: Райан Джонсон, Oxid
В ролях: Марк Хэмилл, Кэрри Фишер, Адам Драйвер, Дэйзи Ридли, Джон Бойега, Оскар Айзек, Энди Серкис, Лупита Нионго, Донал Глисон, Энтони Дэниелс, Питер Мейхью, Келли Мари Трэн, Лора Дерн, Бенисио Дель Торо, Фрэнк Оз, Йонас Суотамо, Аманда Лоуренс, Джимми Ви
Описание:
Прямое продолжение фильма «Пятьдесят Оттенков Дрюлика». После уничтожения планеты Скучняк силы Пан-галактического Добра взяли на себя повышенные обязательства по искоренению галактического бандитизма и успешно их несут. Ведь потерявшая драгоценного супруга Донна Лея одним своим существованием ставит под угрозу праведный образ жизни граждан Свободной Галактики, распространяя лживую литературу и выдвигая в сетях собственного лживого кандидата. Дела у неё, правда, идут не слишком хорошо, так как её банковские счета заблокированы и последняя надежда сохранить положение — это не дать Силам Добра завладеть её секретной алмазной шахтой. Тогда как всем известно, что все алмазы в Галактике должны принадлежать только Товарищу Снорку! Чем закончится это эпическое противостояние света и тьмы, мы узнаем в конце, а большую часть фильма будем пялиться на предателя Фина, его плоскую подругу Лучану и врага народа Сковородкина.
И да, самая примитивная фанатская теория в этом фильме вполне может оказаться правдой.
Семпл
Файл
Кодек: XviD
Качество: HDRip
Видео: 720x304 (2.37:1), 23.970 fps, XviD build 64 ~1976 kbps avg, 0.38 bit/pixel
Звук: 48 kHz, MPEG Layer 3, 2 ch, ~192.00 kbps avg
Примечание автора раздачи:
Релиз от Альянса Вольных Переводчиков.
Исходник перемонтирован, добавлены видеофрагменты из других источников, близких к "Звёздным войнам".
Присутствует ненормативная лексика.
Код: Выделить всё
General
Complete name                            : D:\_films\Starye.Vory.8.Partizanskaya.dochka.2018.HDRip.avi
Format                                   : AVI
Format/Info                              : Audio Video Interleave
Format profile                           : OpenDML
File size                                : 2.10 GiB
Duration                                 : 2 h 18 min
Overall bit rate                         : 2 175 kb/s
Video
ID                                       : 0
Format                                   : MPEG-4 Visual
Format profile                           : Advanced Simple@L5
Format settings, BVOP                    : 2
Format settings, QPel                    : No
Format settings, GMC                     : No warppoints
Format settings, Matrix                  : Default (MPEG)
Codec ID                                 : XVID
Codec ID/Hint                            : XviD
Duration                                 : 2 h 18 min
Bit rate                                 : 1 971 kb/s
Width                                    : 720 pixels
Height                                   : 304 pixels
Display aspect ratio                     : 2.35:1
Frame rate                               : 23.976 (23976/1000) FPS
Color space                              : YUV
Chroma subsampling                       : 4:2:0
Bit depth                                : 8 bits
Scan type                                : Progressive
Compression mode                         : Lossy
Bits/(Pixel*Frame)                       : 0.376
Stream size                              : 1.90 GiB (91%)
Writing library                          : XviD 64
Audio
ID                                       : 1
Format                                   : MPEG Audio
Format version                           : Version 1
Format profile                           : Layer 3
Codec ID                                 : 55
Codec ID/Hint                            : MP3
Duration                                 : 2 h 18 min
Bit rate mode                            : Constant
Bit rate                                 : 192 kb/s
Channel(s)                               : 2 channels
Sampling rate                            : 48.0 kHz
Compression mode                         : Lossy
Stream size                              : 190 MiB (9%)
Alignment                                : Split accross interleaves
Interleave, duration                     : 42  ms (1.00 video frame)
Writing library                          : LAMELAME_MAJOR_VERSI
 
Не забывайте говорить Спасибо. Не уходите с раздачи!   
Торрент: Зарегистрирован [11 июл 2018, 13:33] Скачать торрент
Скачать торрент
[ Размер 10.95 КБ / Просмотров 11 ]
Статус:
Проверен
 
.torrent скачан: 0 раз
Хэш: 14d804842a93887df8dfe953a3beeff4b6381829
Размер: 2.1 ГБ (2 251 643 754 байт)
Стать Автором раздачи
 
 
Раздал: 0 байт
Скачал: 0 байт
Ратио: Inf.
Сообщения: 487468
Зарегистрирован: 17 апр 2014, 13:57


  • Похожие торренты
    Ответы
    Просмотры
    Последнее сообщение

Вернуться в Фильмы со смешным переводом (пародии)

Ресурс не предоставляет электронные версии произведений, а занимается лишь коллекционированием и каталогизацией ссылок, присылаемых и публикуемых на форуме нашими читателями. Если вы являетесь правообладателем какого-либо представленного материала и не желаете чтобы ссылка на него находилась в нашем каталоге, свяжитесь с нами и мы незамедлительно удалим её. Файлы для обмена на трекере предоставлены пользователями сайта, и администрация не несёт ответственности за их содержание. Просьба не заливать файлы, защищенные авторскими правами, а также файлы нелегального содержания!
cron