Убийцы / The Killers (Роберт Сёдмак / Robert Siodmak) [1946, США, триллер, детектив, BDRip] MVO (Светла) + original Eng

 
 Статистика раздачи 
Размер: 1.46 ГБ   |  Зарегистрирован: 29 мар 2011, 12:06   |   .torrent скачан: 0 раз
Сидеров: 1  [ 0 байт/сек ]     Личеров: 0  [ 0 байт/сек ]  
  

Убийцы / The Killers (Роберт Сёдмак / Robert Siodmak) [1946, США, триллер, детектив, BDRip] MVO (Светла) + original Eng

Сообщение Nakazhu » 11 июл 2018, 08:53

Убийцы / The Killers
Страна: США
Жанр
: триллер, детектив
Год выпуска: 1946
Продолжительность: 01:42:23
Перевод: Профессиональный (многоголосый закадровый) - Светла
Оригинальная дорожка: английский
Субтитры: нет
Режиссер: Роберт Сёдмак / Robert Siodmak
В ролях: Берт Ланкастер, Эйва Гарднер, Чарлз МакГро, Вирджиния Кристин, Чарлз Д. Браун, Джон Мильян, Эдмонд О'Брайен, Уильям Конрад, Сэм Ливин, Винс Барнетт, Элберт Деккер, Фил Браун, Доналд МакБрайд
Описание: Первая постановка под руководством Марка Хеллингера, бывшего репортера, ставшего кинопродюсером. Яркий film noir. Черно-белая картина также примечательна музыкой, ставшей знаменитой, и блестящим дебютом в кино Берта Ланкастера. Ас криминального кино, режиссер Роберт Сиодмак использует сюжет рассказа Хемингуэя для построения захватывающей и выразительной драмы убийства, ограбления и предательства. Картина блистает также одним из лучших в истории кино образом "роковой женщины".
Номинации на "Оскар" за лучшую режиссуру (Роберт Сиодмак), лучший монтаж (Артур Хилтон), лучшее музыкальное сопровождение к драме или комедии (Миклош Рожа), лучший сценарий (Энтони Вейллер)

Сэмпл
Качество видео: BDRip
Формат видео
: AVI
Видео: 672x496 (1.35:1), 23.976 fps, XviD build 73 ~1704 kbps avg, 0.21 bit/pixel
Аудио: 48 kHz, AC3 Dolby Digital, 2/0 (L,R) ch, ~192 kbps - многоголосый
Аудио: 48 kHz, AC3 Dolby Digital, 1/0 (C) ch, ~128 kbps - оригинал
General
Complete name : H:\The.Killers.1946.bdrip_[1.46]_[teko].avi
Format : AVI
Format/Info : Audio Video Interleave
File size : 1.46 GiB
Duration : 1h 42mn
Overall bit rate : 2 039 Kbps
Writing application : VirtualDubMod 1.5.10.3 | www.virtualdub-fr.org || (build 2550/release)
Writing library : VirtualDubMod build 2550/release
Video
ID : 0
Format : MPEG-4 Visual
Format profile : Advanced Simple@L5
Format settings, BVOP : 2
Format settings, QPel : No
Format settings, GMC : No warppoints
Format settings, Matrix : Custom
Codec ID : XVID
Codec ID/Hint : XviD
Duration : 1h 42mn
Bit rate : 1 705 Kbps
Width : 672 pixels
Height : 496 pixels
Display aspect ratio : 4:3
Frame rate : 23.976 (23976/1000) fps
Color space : YUV
Chroma subsampling : 4:2:0
Bit depth : 8 bits
Scan type : Progressive
Compression mode : Lossy
Bits/(Pixel*Frame) : 0.213
Stream size : 1.22 GiB (84%)
Writing library : XviD 73
Audio #1
ID : 1
Format : AC-3
Format/Info : Audio Coding 3
Mode extension : CM (complete main)
Format settings, Endianness : Big
Codec ID : 2000
Duration : 1h 42mn
Bit rate mode : Constant
Bit rate : 192 Kbps
Channel(s) : 2 channels
Channel positions : Front: L R
Sampling rate : 48.0 KHz
Frame rate : 31.250 fps (1536 spf)
Compression mode : Lossy
Stream size : 141 MiB (9%)
Alignment : Split accross interleaves
Interleave, duration : 42 ms (1.00 video frame)
Interleave, preload duratio : 500 ms
Audio #2
ID : 2
Format : AC-3
Format/Info : Audio Coding 3
Mode extension : CM (complete main)
Format settings, Endianness : Big
Codec ID : 2000
Duration : 1h 42mn
Bit rate mode : Constant
Bit rate : 128 Kbps
Channel(s) : 1 channel
Channel positions : Front: C
Sampling rate : 48.0 KHz
Frame rate : 31.250 fps (1536 spf)
Compression mode : Lossy
Stream size : 93.7 MiB (6%)
Alignment : Split accross interleaves
Interleave, duration : 42 ms (1.00 video frame)
Interleave, preload duratio : 500 ms
Релиз группы:


 
Не забывайте говорить Спасибо. Не уходите с раздачи!   
Торрент: Зарегистрирован [29 мар 2011, 12:06] Для скачивания .torrent
необходима регистрация
Или скачать с помощью
MediaGet
Статус:
Проверен
 
.torrent скачан: 0 раз
Хэш: 3dd3f918ef2bd4c9d7267b20d63097a3914d7468
Размер: 1.46 ГБ (1 565 702 144 байт)
Стать Автором раздачи
 
 
Раздал: 0 байт
Скачал: 0 байт
Ратио: Inf.
Сообщения: 487468
Зарегистрирован: 17 апр 2014, 13:57


  • Похожие торренты
    Ответы
    Просмотры
    Последнее сообщение

Вернуться в Классика зарубежного кино

Ресурс не предоставляет электронные версии произведений, а занимается лишь коллекционированием и каталогизацией ссылок, присылаемых и публикуемых на форуме нашими читателями. Если вы являетесь правообладателем какого-либо представленного материала и не желаете чтобы ссылка на него находилась в нашем каталоге, свяжитесь с нами и мы незамедлительно удалим её. Файлы для обмена на трекере предоставлены пользователями сайта, и администрация не несёт ответственности за их содержание. Просьба не заливать файлы, защищенные авторскими правами, а также файлы нелегального содержания!
cron