Живой свет с Дэвидом Аттенборо / Attenborough's Life That Glows (Джо Лонкрейн / Joe Loncraine) [2016, документальный, BDRip] VO (СВ-Дубль) + Sub Rus, Eng + original Eng

 
 Статистика раздачи 
Размер: 746.8 МБ   |  Зарегистрирован: 11 июл 2018, 04:08   |   .torrent скачан: 0 раз
Сидеров: 1  [ 0 байт/сек ]     Личеров: 0  [ 0 байт/сек ]  
  

Живой свет с Дэвидом Аттенборо / Attenborough's Life That Glows (Джо Лонкрейн / Joe Loncraine) [2016, документальный, BDRip] VO (СВ-Дубль) + Sub Rus, Eng + original Eng

Сообщение Nakazhu » 11 июл 2018, 07:17

Живой свет с Дэвидом Аттенборо / Attenborough's Life That Glows
Дата/Год выпуска: 2016
Страна
: Австрия, Великобритания
Жанр: документальный
Продолжительность: 00:59:02
Перевод: Студийный (одноголосый закадровый) - СВ-Дубль
Русские субтитры: есть
Формат субтитров: softsub (SRT)
Оригинальная аудиодорожка: английский
Режиссер: Джо Лонкрейн / Joe Loncraine
Описание: Биолюминесценция — во многом загадочное явление. Учёные обнаруживают по всему миру множество удивительных живых существ, способных излучать свет. Открытие всё большего количества странных светящихся созданий порождает лишь большее количество вопросов. Почему, для чего и каким образом они производят этот свет? В последние годы учёные начали находить ответы на эти вопросы.
Сэмпл
качество: BDRip
формат
: AVI
Видео: 704x400 (1.76:1), 25 fps, XviD build 73 ~1369 kbps avg, 0.19 bit/pixel
Аудио: 48 kHz, AC3 Dolby Digital, 2/0 (L,R) ch, ~192 kbps - одноголосый
Аудио: 48 kHz, AC3 Dolby Digital, 2/0 (L,R) ch, ~192 kbps - оригинал
http://rutracker.org/forum/viewtopic.php?t=5344264 - разные версии
http://screenshotcomparison.com/comparison/116525Цитата:
Дневник съемок в дорожке с профпереводом представлен переводом от Ю.Онищенко, поскольку в ТВ версии его не демонстрировали.

Код: Выделить всё
General
Complete name               : H:\Attenboroughs.Life.That.Glows.2016.bdrip_[745]_[teko]\Attenboroughs.Life.That.Glows.2016.bdrip_[745].avi
Format                      : AVI
Format/Info                 : Audio Video Interleave
File size                   : 747 MiB
Duration                    : 59mn 2s
Overall bit rate            : 1 768 Kbps
Writing application         : VirtualDubMod 1.5.10.3 | www.virtualdub-fr.org || (build 2550/release)
Writing library             : VirtualDubMod build 2550/release
Video
ID                          : 0
Format                      : MPEG-4 Visual
Format profile              : Advanced Simple@L5
Format settings, BVOP       : 2
Format settings, QPel       : No
Format settings, GMC        : No warppoints
Format settings, Matrix     : Custom
Codec ID                    : XVID
Codec ID/Hint               : XviD
Duration                    : 59mn 2s
Bit rate                    : 1 370 Kbps
Width                       : 704 pixels
Height                      : 400 pixels
Display aspect ratio        : 16:9
Frame rate                  : 25.000 fps
Color space                 : YUV
Chroma subsampling          : 4:2:0
Bit depth                   : 8 bits
Scan type                   : Progressive
Compression mode            : Lossy
Bits/(Pixel*Frame)          : 0.195
Stream size                 : 578 MiB (77%)
Writing library             : XviD 73
Audio #1
ID                          : 1
Format                      : AC-3
Format/Info                 : Audio Coding 3
Mode extension              : CM (complete main)
Format settings, Endianness : Big
Codec ID                    : 2000
Duration                    : 59mn 1s
Bit rate mode               : Constant
Bit rate                    : 192 Kbps
Channel(s)                  : 2 channels
Channel positions           : Front: L R
Sampling rate               : 48.0 KHz
Frame rate                  : 31.250 fps (1536 spf)
Compression mode            : Lossy
Stream size                 : 81.1 MiB (11%)
Alignment                   : Split accross interleaves
Interleave, duration        : 40 ms (1.00 video frame)
Interleave, preload duratio : 500 ms
Audio #2
ID                          : 2
Format                      : AC-3
Format/Info                 : Audio Coding 3
Mode extension              : CM (complete main)
Format settings, Endianness : Big
Codec ID                    : 2000
Duration                    : 59mn 2s
Bit rate mode               : Constant
Bit rate                    : 192 Kbps
Channel(s)                  : 2 channels
Channel positions           : Front: L R
Sampling rate               : 48.0 KHz
Frame rate                  : 31.250 fps (1536 spf)
Compression mode            : Lossy
Stream size                 : 81.1 MiB (11%)
Alignment                   : Split accross interleaves
Interleave, duration        : 40 ms (1.00 video frame)
Interleave, preload duratio : 500 ms
Релиз группы:


 
Не забывайте говорить Спасибо. Не уходите с раздачи!   
Торрент: Зарегистрирован [11 июл 2018, 04:08] Скачать торрент
Скачать торрент
[ Размер 15.3 КБ / Просмотров 2 ]
Статус:
Проверен
 
.torrent скачан: 0 раз
Хэш: 596b3d46ad5943aa6c908e18cf720537b3a50842
Размер: 746.8 МБ (783 075 925 байт)
Стать Автором раздачи
 
 
Раздал: 0 байт
Скачал: 0 байт
Ратио: Inf.
Сообщения: 487468
Зарегистрирован: 17 апр 2014, 13:57


  • Похожие торренты
    Ответы
    Просмотры
    Последнее сообщение

Вернуться в Документальные фильмы и телепередачи

Ресурс не предоставляет электронные версии произведений, а занимается лишь коллекционированием и каталогизацией ссылок, присылаемых и публикуемых на форуме нашими читателями. Если вы являетесь правообладателем какого-либо представленного материала и не желаете чтобы ссылка на него находилась в нашем каталоге, свяжитесь с нами и мы незамедлительно удалим её. Файлы для обмена на трекере предоставлены пользователями сайта, и администрация не несёт ответственности за их содержание. Просьба не заливать файлы, защищенные авторскими правами, а также файлы нелегального содержания!
cron