(Melodic Hard Rock) [CD] Schubert In Rock - Commander Of Pain - 2018, FLAC (image+.cue), lossless

 
 Статистика раздачи 
Размер: 505.86 МБ   |  Зарегистрирован: 11 июл 2018, 03:39   |   .torrent скачан: 0 раз
Сидеров: 1  [ 0 байт/сек ]     Личеров: 0  [ 0 байт/сек ]  
  

(Melodic Hard Rock) [CD] Schubert In Rock - Commander Of Pain - 2018, FLAC (image+.cue), lossless

Сообщение Nakazhu » 11 июл 2018, 06:46

Schubert In Rock
Commander Of Pain •





• Жанр: Hard Rock
• Носитель: CD
• Год издания: 2018
• Год переиздания: 2018
• Издатель (лейбл) Pure Steel
• Номер по каталогу: PSRSD163
• Страна исполнителя (группы): Austria
• Аудиокодек: FLAC (*.flac)
• Тип рипа: image+.cue
• Продолжительность: 01:10:08
• Источник (релизер): workutagin ®
• Наличие сканов: да

01. Empathy (00:04:17)
02. Burning Heart (00:05:19)
03. Little Boy (00:06:38)
04. Too Late (00:03:32)
05. Under The Lights (00:05:03)
06. World With No Tomorrow (00:05:47)
07. Forgive Me When I Fall (00:05:08)
08. Ride The Bullet (00:05:08)
09. On The Line (00:04:03)
10. Itґs Our World (00:08:01)
11. Dance Of The Black Tattoo (00:04:59)
12. Commander Of Pain (00:04:59)
13. My Name Is Judas (00:07:08)

Код: Выделить всё
-----------------------
DON'T MODIFY THIS FILE
-----------------------
PERFORMER: auCDtect Task Manager, ver. 1.6.0 RC1 build 1.6.0.1
Copyright (c) 2008-2010 y-soft. All rights reserved
[url=http://y-soft.org]http://y-soft.org[/url]
ANALYZER: auCDtect: CD records authenticity detector, version 0.8.2
Copyright (c) 2004 Oleg Berngardt. All rights reserved.
Copyright (c) 2004 Alexander Djourik. All rights reserved.
FILE: Schubert In Rock - Commander Of Pain.flac
  Size: 494142273 Hash: A02A33BE36D0BF303DFF9EBC7F22C8B2 Accuracy: -m0
  Conclusion: MPEG 95%
  Signature: 535F5CADD330E984FA7EF8DD6F94C7FCFA62EC6E

Код: Выделить всё
Exact Audio Copy V1.3 from 2. September 2016
Отчёт EAC об извлечении, выполненном 10. июля 2018, 20:54
Schubert In Rock / Commander Of Pain
Дисковод: HL-DT-STDVDRAM GU40N   Adapter: 0  ID: 1
Режим чтения                 : Достоверность
Использование точного потока : Да
Отключение кэша аудио        : Да
Использование указателей C2  : Нет
Коррекция смещения при чтении                     : 103
Способность читать области Lead-in и Lead-out     : Нет
Заполнение пропущенных сэмплов тишиной            : Да
Удаление блоков с тишиной в начале и конце        : Нет
При вычислениях CRC использовались нулевые сэмплы : Да
Интерфейс                                         : Установленный внешний ASPI-интерфейс
Выходной формат          : Пользовательский кодировщик
Выбранный битрейт        : 1024 kBit/s
Качество                 : Высокий
Добавление ID3-тега      : Нет
Утилита сжатия           : C:\Program Files (x86)\Exact Audio Copy\Flac\flac.exe
Дополнительные параметры :  -V -8 -T "Date=%year%" -T "Genre=%genre%" %source%
TOC извлечённого CD
     Трек |   Старт  | Длительность | Начальный сектор | Конечный сектор
    ---------------------------------------------------------------------
       1  |  0:00.00 |    4:17.26   |           0      |      19300
       2  |  4:17.26 |    5:19.50   |       19301      |      43275
       3  |  9:37.01 |    6:39.01   |       43276      |      73201
       4  | 16:16.02 |    3:32.55   |       73202      |      89156
       5  | 19:48.57 |    5:03.06   |       89157      |     111887
       6  | 24:51.63 |    5:47.65   |      111888      |     137977
       7  | 30:39.53 |    5:09.21   |      137978      |     161173
       8  | 35:48.74 |    5:08.65   |      161174      |     184338
       9  | 40:57.64 |    4:03.44   |      184339      |     202607
      10  | 45:01.33 |    8:01.08   |      202608      |     238690
      11  | 53:02.41 |    4:59.69   |      238691      |     261184
      12  | 58:02.35 |    4:59.29   |      261185      |     283638
      13  | 63:01.64 |    7:08.42   |      283639      |     315780
Характеристики диапазона извлечения и сообщения об ошибках
Выбранный диапазон
     Имя файла C:\Users\workutagin\Desktop\SCHUBERT IN ROCK - COMMANDER OF PAIN 2018\Schubert In Rock - Commander Of Pain.wav
     Пиковый уровень 95.3 %
     Скорость извлечения 2.1 X
     Качество диапазона 99.9 %
     CRC теста 1566B512
     CRC копии 1566B512
     Копирование... OK
Ошибок не произошло
AccurateRip: сводка
Трек  1  отсутствует в базе данных
Трек  2  отсутствует в базе данных
Трек  3  отсутствует в базе данных
Трек  4  отсутствует в базе данных
Трек  5  отсутствует в базе данных
Трек  6  отсутствует в базе данных
Трек  7  отсутствует в базе данных
Трек  8  отсутствует в базе данных
Трек  9  отсутствует в базе данных
Трек 10  отсутствует в базе данных
Трек 11  отсутствует в базе данных
Трек 12  отсутствует в базе данных
Трек 13  отсутствует в базе данных
Ни одного трека нет в базе AccurateRip
Конец отчёта
---- CUETools DB Plugin V2.1.6
[CTDB TOCID: pOzpiDR_YhrziznP_T_hDshbvkI-] disk not present in database
Submit result: pOzpiDR_YhrziznP_T_hDshbvkI- has been uploaded
==== Контрольная сумма отчёта E6E848B30206EAC0F2C7F421AD556A05327FCD9FFF4BA97EFBFD4D59B6BE5B4A ====

Код: Выделить всё
REM GENRE "Hard Rock"
REM DATE 2018
REM DISCID C910720D
REM COMMENT "ExactAudioCopy v1.3"
PERFORMER "Schubert In Rock"
TITLE "Commander Of Pain"
REM COMPOSER ""
FILE "Schubert In Rock - Commander Of Pain.flac" WAVE
  TRACK 01 AUDIO
    TITLE "Empathy"
    PERFORMER "Schubert In Rock"
    REM COMPOSER "Schubert In Rock"
    INDEX 01 00:00:00
  TRACK 02 AUDIO
    TITLE "Burning Heart"
    PERFORMER "Schubert In Rock"
    REM COMPOSER "Schubert In Rock"
    INDEX 00 04:17:02
    INDEX 01 04:17:26
  TRACK 03 AUDIO
    TITLE "Little Boy"
    PERFORMER "Schubert In Rock"
    REM COMPOSER "Schubert In Rock"
    INDEX 00 09:36:66
    INDEX 01 09:37:01
  TRACK 04 AUDIO
    TITLE "Too Late"
    PERFORMER "Schubert In Rock"
    REM COMPOSER "Schubert In Rock"
    INDEX 00 16:15:61
    INDEX 01 16:16:02
  TRACK 05 AUDIO
    TITLE "Under The Lights"
    PERFORMER "Schubert In Rock"
    REM COMPOSER "Schubert In Rock"
    INDEX 00 19:48:26
    INDEX 01 19:48:57
  TRACK 06 AUDIO
    TITLE "World With No Tomorrow"
    PERFORMER "Schubert In Rock"
    REM COMPOSER "Schubert In Rock"
    INDEX 00 24:51:61
    INDEX 01 24:51:63
  TRACK 07 AUDIO
    TITLE "Forgive Me When I Fall"
    PERFORMER "Schubert In Rock"
    REM COMPOSER "Schubert In Rock"
    INDEX 00 30:39:37
    INDEX 01 30:39:53
  TRACK 08 AUDIO
    TITLE "Ride The Bullet"
    PERFORMER "Schubert In Rock"
    REM COMPOSER "Schubert In Rock"
    INDEX 00 35:48:51
    INDEX 01 35:48:74
  TRACK 09 AUDIO
    TITLE "On The Line"
    PERFORMER "Schubert In Rock"
    REM COMPOSER "Schubert In Rock"
    INDEX 00 40:57:57
    INDEX 01 40:57:64
  TRACK 10 AUDIO
    TITLE "Itґs Our World"
    PERFORMER "Schubert In Rock"
    REM COMPOSER "Schubert In Rock"
    INDEX 00 45:01:21
    INDEX 01 45:01:33
  TRACK 11 AUDIO
    TITLE "Dance Of The Black Tattoo"
    PERFORMER "Schubert In Rock"
    REM COMPOSER "Schubert In Rock"
    INDEX 00 53:02:35
    INDEX 01 53:02:41
  TRACK 12 AUDIO
    TITLE "Commander Of Pain"
    PERFORMER "Schubert In Rock"
    REM COMPOSER "Schubert In Rock"
    INDEX 00 58:02:17
    INDEX 01 58:02:35
  TRACK 13 AUDIO
    TITLE "My Name Is Judas"
    PERFORMER "Schubert In Rock"
    REM COMPOSER "Schubert In Rock"
    INDEX 01 63:01:64

Код: Выделить всё
foobar2000 1.3.17 / Замер динамического диапазона (DR) 1.1.1
Дата отчёта:  2018-07-11 06:32:51
--------------------------------------------------------------------------------
Анализ:   Schubert In Rock / Commander Of Pain
--------------------------------------------------------------------------------
DR         Пики         RMS           Продолжительность трека
--------------------------------------------------------------------------------
DR7       -0.41 дБ    -8.56 дБ      4:17 01-Empathy
DR6       -0.41 дБ    -7.55 дБ      5:20 02-Burning Heart
DR7       -0.41 дБ    -8.59 дБ      6:39 03-Little Boy
DR7       -0.41 дБ    -9.18 дБ      3:33 04-Too Late
DR6       -0.41 дБ    -7.49 дБ      5:03 05-Under The Lights
DR7       -0.41 дБ    -8.95 дБ      5:48 06-World With No Tomorrow
DR7       -0.41 дБ    -9.06 дБ      5:09 07-Forgive Me When I Fall
DR8       -0.41 дБ   -10.12 дБ      5:09 08-Ride The Bullet
DR7       -0.41 дБ    -9.12 дБ      4:04 09-On The Line
DR7       -0.41 дБ    -8.97 дБ      8:01 10-Itґs Our World
DR9       -0.41 дБ   -10.57 дБ      5:00 11-Dance Of The Black Tattoo
DR7       -0.41 дБ    -8.87 дБ      4:59 12-Commander Of Pain
DR7       -0.41 дБ    -8.47 дБ      7:09 13-My Name Is Judas
--------------------------------------------------------------------------------
Количество треков: 13
Реальные значения DR: DR7
Частота:   44100 Гц
Каналов:   2
Разрядность:   16
Битрейт:   939 кбит/с
Кодек:   FLAC
================================================================================





 
Не забывайте говорить Спасибо. Не уходите с раздачи!   
Торрент: Зарегистрирован [11 июл 2018, 03:39] Скачать торрент
Скачать торрент
[ Размер 21.05 КБ / Просмотров 8 ]
Статус:
Проверен
 
.torrent скачан: 0 раз
Хэш: 390b5f53bb4850d27844e5cce7810416395593ea
Размер: 505.86 МБ (530 435 396 байт)
Стать Автором раздачи
 
 
Раздал: 0 байт
Скачал: 0 байт
Ратио: Inf.
Сообщения: 487468
Зарегистрирован: 17 апр 2014, 13:57


  • Похожие торренты
    Ответы
    Просмотры
    Последнее сообщение

Вернуться в Classic Rock & Hard Rock (lossless)

Ресурс не предоставляет электронные версии произведений, а занимается лишь коллекционированием и каталогизацией ссылок, присылаемых и публикуемых на форуме нашими читателями. Если вы являетесь правообладателем какого-либо представленного материала и не желаете чтобы ссылка на него находилась в нашем каталоге, свяжитесь с нами и мы незамедлительно удалим её. Файлы для обмена на трекере предоставлены пользователями сайта, и администрация не несёт ответственности за их содержание. Просьба не заливать файлы, защищенные авторскими правами, а также файлы нелегального содержания!
cron