Садко (Максим Волков, Виталий Мухаметзянов) [2017, Россия, мультфильм, комедия, семейный, WEB-DL 1080p]

 
 Статистика раздачи 
Размер: 2.73 ГБ   |  Зарегистрирован: 11 июл 2018, 02:09   |   .torrent скачан: 0 раз
Сидеров: 1  [ 0 байт/сек ]     Личеров: 0  [ 0 байт/сек ]  
  

Садко (Максим Волков, Виталий Мухаметзянов) [2017, Россия, мультфильм, комедия, семейный, WEB-DL 1080p]

Сообщение Nakazhu » 11 июл 2018, 05:13

Садко
Страна: Россия
Жанр: мультфильм, комедия, семейный
Продолжительность: 01:17:50
Год выпуска: 2017
Перевод: Не требуется
Субтитры: нет
Режиссер: Максим Волков, Виталий Мухаметзянов
Роли озвучивали: Тимур Гарипов, Любовь Аксенова, Екатерина Варнава, Мария Шалаева, Михаил Ефремов, Дмитрий Филимонов, Данис Галиуллин, Руслан Ронич, Анатолий Константинов, Диомид Виноградов

Описание: Хоть беги, хоть не беги, а от любви нигде не скрыться. Ни в палатах новгородского князя, ни на дне морском. Особенно, если зовут тебя Садко, и ты симпатичный веселый парень. К тому же, на гуслях играть мастак. Вот только за настоящую любовь еще и повоевать придется. Да не с кем-нибудь, а с подводной ведьмой Барракудой. Но любовь все равно победит. Вот увидите!

Sample
Качество: WEB-DL 1080p - iTunes
Формат: MKV
Видео: MPEG4 AVC Video, H264, 2.40:1, 1920x804, 25 fps, 4539 kbps, 0.118 bit/pixel
Аудио: Russian (AC3, 6 ch, 384 kbps, 16 bits, 48.0 KHz)
Код: Выделить всё
General
Unique ID                   : 205168998484361454891662184670348532695 (0x9A5A1C9DE1F1509B9511A97795A15BD7)
Complete name               : D:\Садко 2017 WEB-DL 1080p.mkv
Format                      : Matroska
Format version              : Version 4 / Version 2
File size                   : 2.73 GiB
Duration                    : 1 h 17 min
Overall bit rate            : 5 023 kb/s
Encoded date                : UTC 2018-07-11 01:59:21
Writing application         : mkvmerge v6.1.0 ('Old Devil') built on Mar  2 2013 14:32:37
Writing library             : libebml v1.3.0 + libmatroska v1.4.0
Video
ID                          : 1
Format                      : AVC
Format/Info                 : Advanced Video Codec
Format profile              : High@L4
Format settings             : CABAC / 5 Ref Frames
Format settings, CABAC      : Yes
Format settings, ReFrames   : 5 frames
Codec ID                    : V_MPEG4/ISO/AVC
Duration                    : 1 h 17 min
Bit rate                    : 4 539 kb/s
Width                       : 1 920 pixels
Height                      : 804 pixels
Display aspect ratio        : 2.40:1
Frame rate mode             : Constant
Frame rate                  : 25.000 FPS
Color space                 : YUV
Chroma subsampling          : 4:2:0
Bit depth                   : 8 bits
Scan type                   : Progressive
Bits/(Pixel*Frame)          : 0.118
Stream size                 : 2.47 GiB (90%)
Language                    : English
Default                     : Yes
Forced                      : No
Color range                 : Limited
Color primaries             : BT.709
Transfer characteristics    : BT.709
Matrix coefficients         : BT.709
Audio
ID                          : 2
Format                      : AC-3
Format/Info                 : Audio Coding 3
Codec ID                    : A_AC3
Duration                    : 1 h 17 min
Bit rate mode               : Constant
Bit rate                    : 384 kb/s
Channel(s)                  : 6 channels
Channel positions           : Front: L C R, Side: L R, LFE
Sampling rate               : 48.0 kHz
Frame rate                  : 31.250 FPS (1536 SPF)
Bit depth                   : 16 bits
Compression mode            : Lossy
Stream size                 : 214 MiB (8%)
Language                    : Russian
Service kind                : Complete Main
Default                     : Yes
Forced                      : No
Menu
00:00:00.000                : en:Глава 1
00:03:48.120                : en:Глава 2
00:09:16.920                : en:Глава 3
00:15:20.040                : en:Глава 4
00:21:35.040                : en:Глава 5
00:27:05.560                : en:Глава 6
00:32:45.280                : en:Глава 7
00:38:49.280                : en:Глава 8
00:45:06.080                : en:Глава 9
00:51:28.040                : en:Глава 10
00:56:01.440                : en:Глава 11
01:01:33.000                : en:Глава 12
01:07:03.440                : en:Глава 13

 
Не забывайте говорить Спасибо. Не уходите с раздачи!   
Торрент: Зарегистрирован [11 июл 2018, 02:09] Для скачивания .torrent
необходима регистрация
Или скачать с помощью
MediaGet
Статус:
Проверен
 
.torrent скачан: 0 раз
Хэш: 72e5f0229c2a5fe00cefa53b327d68a2e00d82ac
Размер: 2.73 ГБ (2 932 305 804 байт)
Стать Автором раздачи
 
 
Раздал: 0 байт
Скачал: 0 байт
Ратио: Inf.
Сообщения: 487468
Зарегистрирован: 17 апр 2014, 13:57


  • Похожие торренты
    Ответы
    Просмотры
    Последнее сообщение

Вернуться в Мультфильмы и мультсериалы

Ресурс не предоставляет электронные версии произведений, а занимается лишь коллекционированием и каталогизацией ссылок, присылаемых и публикуемых на форуме нашими читателями. Если вы являетесь правообладателем какого-либо представленного материала и не желаете чтобы ссылка на него находилась в нашем каталоге, свяжитесь с нами и мы незамедлительно удалим её. Файлы для обмена на трекере предоставлены пользователями сайта, и администрация не несёт ответственности за их содержание. Просьба не заливать файлы, защищенные авторскими правами, а также файлы нелегального содержания!
cron