Генеральный конструктор (2 серии из 2) (Валентина Рассохо-Анохина) [2017, Документальный, флот, история, SATRip]

 
 Статистика раздачи 
Размер: 1.55 ГБ   |  Зарегистрирован: 10 июл 2018, 23:55   |   .torrent скачан: 0 раз
Сидеров: 1  [ 0 байт/сек ]     Личеров: 0  [ 0 байт/сек ]  
  

Генеральный конструктор (2 серии из 2) (Валентина Рассохо-Анохина) [2017, Документальный, флот, история, SATRip]

Сообщение Nakazhu » 11 июл 2018, 03:09

Генеральный конструктор (2 серии из 2)
Дата/Год выпуска: 2017
Страна: Россия, ОАО «Морская документальная видеостудия»
Жанр: Документальный, флот, история
Продолжительность: 2 х ~ 00:55:00
Перевод: Не требуется
Режиссер: Валентина Рассохо-Анохина
Телеканал: OCEAN-TV
Описание: Фильм о развитии неатомного подводного флота России и роли Генерального конструктора в создании сложной техники. Кинолента снята на рубеже создания российской промышленностью и наукой нового вида подводных лодок: неатомных, т.е. не только дизель-электрических, но и подводных лодок с воздухонезависимыми энергетическими установками.
Доп. информация: Авторство релиза - alf62

качество: SATRip
формат: AVI
Видео: 720x400 (1.80:1), 25 fps, XviD build 73 ~1799 kbps avg, 0.25 bit/pixel
Аудио: 48 kHz, AC3 Dolby Digital, 2/0 (L,R) ch, ~192.00 kbps avg
1 серия
Фильм показывает ретроспективу развития создания подводного флота с дизель-электрическими энергетическими установками. Нужны ли России и ее Военно-морскому флоту массовые неатомные подводные лодки? В чем отличие их необходимости от других стран.
2 серия
Достаточно полный и подробный рассказ о создании головной подводной лодки типа «Лада» с наименованием «Санкт-Петербург» и проблемах её испытаний, ввода в серию, интервью с генеральным конструктором о новинках подводной лодки, которую еще на этапе технического проекта окрестили «убийца атомных подводных лодок», о новом вооружении.
Код: Выделить всё
Общее
Полное имя                               : E:\Запись\Генеральный конструктор\Генеральный.конструктор.(2.серии.из.2).2017.XviD.SATRip.alf62\Генеральный.конструктор.(1.серия).2017.XviD.SATRip.alf62.avi
Формат                                   : AVI
Формат/Информация                        : Audio Video Interleave
Размер файла                             : 820 Мбайт
Продолжительность                        : 57 м.
Общий поток                              : 2002 Кбит/сек
Программа кодирования                    : VirtualDubMod 1.5.10.3 | www.virtualdub-fr.org || (build 2550/release)
Библиотека кодирования                   : VirtualDubMod build 2550/release
Видео
Идентификатор                            : 0
Формат                                   : MPEG-4 Visual
Профиль формата                          : Advanced Simple@L5
Параметр BVOP формата                    : 2
Параметр QPel формата                    : Нет
Параметр GMC формата                     : Без точки перехода
Параметр матрицы формата                 : Default (MPEG)
Идентификатор кодека                     : XVID
Идентификатор кодека/Подсказка           : XviD
Продолжительность                        : 57 м.
Битрейт                                  : 1800 Кбит/сек
Ширина                                   : 720 пикселей
Высота                                   : 400 пикселей
Соотношение сторон                       : 16:9
Частота кадров                           : 25,000 кадров/сек
Цветовое пространство                    : YUV
Субдискретизация насыщенности            : 4:2:0
Битовая глубина                          : 8 бит
Тип развёртки                            : Прогрессивная
Метод сжатия                             : С потерями
Бит/(Пиксели*Кадры)                      : 0.250
Размер потока                            : 737 Мбайт (90%)
Библиотека кодирования                   : XviD 73
Аудио
Идентификатор                            : 1
Формат                                   : AC-3
Формат/Информация                        : Audio Coding 3
Расширение режима                        : CM (complete main)
Параметр Endianness формата              : Big
Идентификатор кодека                     : 2000
Продолжительность                        : 57 м.
Вид битрейта                             : Постоянный
Битрейт                                  : 192 Кбит/сек
Каналы                                   : 2 канала
Расположение каналов                     : Front: L R
Частота                                  : 48,0 КГц
Битовая глубина                          : 16 бит
Метод сжатия                             : С потерями
Размер потока                            : 78,6 Мбайт (10%)
Выравнивание                             : Разделение по промежуткам
Продолжительность промежутка             : 40  мс. (1,00 видеокадр)
Время предзагрузки промежутка            : 500  мс.

 
Не забывайте говорить Спасибо. Не уходите с раздачи!   
Торрент: Зарегистрирован [10 июл 2018, 23:55] Для скачивания .torrent
необходима регистрация
Или скачать с помощью
MediaGet
Статус:
Проверен
 
.torrent скачан: 0 раз
Хэш: 407aa93d53957c9c35d813aec74532b28e6f9e69
Размер: 1.55 ГБ (1 668 759 552 байт)
Стать Автором раздачи
 
 
Раздал: 0 байт
Скачал: 0 байт
Ратио: Inf.
Сообщения: 487468
Зарегистрирован: 17 апр 2014, 13:57


  • Похожие торренты
    Ответы
    Просмотры
    Последнее сообщение

Вернуться в Документальные фильмы и телепередачи

Ресурс не предоставляет электронные версии произведений, а занимается лишь коллекционированием и каталогизацией ссылок, присылаемых и публикуемых на форуме нашими читателями. Если вы являетесь правообладателем какого-либо представленного материала и не желаете чтобы ссылка на него находилась в нашем каталоге, свяжитесь с нами и мы незамедлительно удалим её. Файлы для обмена на трекере предоставлены пользователями сайта, и администрация не несёт ответственности за их содержание. Просьба не заливать файлы, защищенные авторскими правами, а также файлы нелегального содержания!
cron