Страница 1 из 1

Видеопрохождение .hack//Link [HD] [RUS]

СообщениеДобавлено: 11 июл 2018, 01:31
Nakazhu
Видеопрохождение .hack//Link
Год выпуска: 2018
Создатель видео: SferDrakon
Количество серий: 7
Общая продолжительность: 03:21:12
Субтитры: нет
Язык озвучки : русский
Качество: HD
Формат: MP4
Информация о видео: 1280x720, NTFC
Информация о аудио: AAC, 48 кгц
Описание: .hack//Link – продолжение популярной игры .hack//G.U. для PSP. Действия игры разворачиваются в 2020 году, три года спустя после того, как закончились события .hack//G.U. В этой игре вы будете играть роль японского школьника по имени Токио Кирю, жизнь которого полностью перевернулась с ног на голову, когда в его школе появилась новая ученица Саика Амаги, которая открыла для него фантастический мир The World R:X. Путешествуйте по удивительному и захватывающему миру игры и знакомьтесь с местными жителями и новыми героями, которые поведают вам историю этого мира. В этой игре вы не только будете перемещаться по миру The World R:X. но и также будете играть в реальном мире за школьника Токио Курю.
Общее
Полное имя : C:\Видеопрохождения\Готовое\hack\Link\01_hack Link Пролог (1 of 2).mp4
Формат : MPEG-4
Профиль формата : Base Media / Version 2
Идентификатор кодека : mp42 (mp42/mp41)
Размер файла : 1,20 Гбайт
Продолжительность : 26 м. 49 с.
Режим общего битрейта : Переменный
Общий поток : 6378 Кбит/сек
Дата кодирования : UTC 2018-04-15 15:58:44
Дата пометки : UTC 2018-04-15 15:59:19
TIM : 00:00:00:00
TSC : 30
TSZ : 1
Видео
Идентификатор : 1
Формат : AVC
Формат/Информация : Advanced Video Codec
Профиль формата : Main@L4.1
Настройки формата : CABAC / 4 Ref Frames
Параметр CABAC формата : Да
Параметр RefFrames формата : 4 кадра
Идентификатор кодека : avc1
Идентификатор кодека/Информация : Advanced Video Coding
Продолжительность : 26 м. 49 с.
Битрейт : 6056 Кбит/сек
Ширина : 1280 пикселей
Высота : 720 пикселей
Соотношение сторон : 16:9
Режим частоты кадров : Постоянный
Частота кадров : 30,000 кадров/сек
Стандарт вещания : NTSC
Цветовое пространство : YUV
Субдискретизация насыщенности : 4:2:0
Битовая глубина : 8 бит
Тип развёртки : Прогрессивная
Бит/(Пиксели*Кадры) : 0.219
Размер потока : 1,13 Гбайт (95%)
Язык : English
Дата кодирования : UTC 2018-04-15 15:58:44
Дата пометки : UTC 2018-04-15 15:58:44
Цветовой диапазон : Limited
Основные цвета : BT.709
Характеристики трансфера : BT.709
Коэффициенты матрицы : BT.709
Аудио
Идентификатор : 2
Формат : AAC
Формат/Информация : Advanced Audio Codec
Профиль формата : LC
Идентификатор кодека : mp4a-40-2
Продолжительность : 26 м. 49 с.
Продолжительность оригинала : 26 м. 49 с.
Вид битрейта : Переменный
Битрейт : 317 Кбит/сек
Максимальный битрейт : 368 Кбит/сек
Каналы : 2 канала
Расположение каналов : Front: L R
Частота : 48,0 КГц
Частота кадров : 46,875 кадров/сек (1024 SPF)
Метод сжатия : С потерями
Размер потока : 60,9 Мбайт (5%)
Размер потока оригинала : 60,9 Мбайт (5%)
Язык : English
Дата кодирования : UTC 2018-04-15 15:58:44
Дата пометки : UTC 2018-04-15 15:58:44
Доп. информация: Видеопрохождение игры. Весь видеоряд был снят и озвучен мной. Все права на саму игру принадлежат компании Namco Bandai.
Переведены в виде текстовых сообщений игровые подсказки и озвучены реплики персонажей. Постарался подобрать под каждого героя свою интонацию, но насколько это получилось, судить вам.
Здесь то же самое, что я выкладываю на своем канале: Мой канал



Обновление от 11 июля 2018 года.
Добавлены 3 новые серии (3-5 главы по эпохе Знака)
Обновлена 1 глава эпохи Знака