Тайна мерцающих огоньков (ЛенТВ, дирекция детских и юношеских программ) (Андрей Князьков) [1995, Сказка, DVDRip-AVC]

 
 Статистика раздачи 
Размер: 6.02 ГБ   |  Зарегистрирован: 30 июн 2018, 22:02   |   .torrent скачан: 0 раз
Сидеров: 1  [ 0 байт/сек ]     Личеров: 0  [ 0 байт/сек ]  
  

Тайна мерцающих огоньков (ЛенТВ, дирекция детских и юношеских программ) (Андрей Князьков) [1995, Сказка, DVDRip-AVC]

Сообщение Nakazhu » 10 июл 2018, 21:55

Тайна мерцающих огоньков
Жанр: Сказка
Год выпуска: 1995
Продолжительность: 02:34:32
Режиссёр: Андрей Князьков
В ролях: Андрей Князьков, Александра Норец, Аня Зрелова, Надежда Карева и др.
Описание: Умная и добрая сказка о том, как важно быть верным своей мечте.
Фильм является частью телепередачи "Сказка за сказкой", которая выходила в эфир с середины 1970-х по начало 1990-х годов не только в Ленинграде, но и в других городах, а также в Польше и Чехословакии.
Качество видео: DVDRip
Формат видео: MP4
Видео: MPEG-4, 720х576, 4:3, 25 fps, 8300 kbps
Аудио: mp3, 48 cHz, 2 ch, 256 kbps
Доп. инфорация:
Материал предоставил з.а. РФ Андрей Князьков (оцифровка со студийной кассеты Betacam).
По первой части (остальные идентичны):
Полное имя : D:\02 - Тайна мерцающих огоньков (ЛенТВ, дирекция детских и юношеских программ, 1995)\1 ЧАСТЬ.mpg
Формат : MPEG-PS
Размер файла : 1,38 Гбайт
Продолжительность : 40 м. 42 с.
Режим общего битрейта : Постоянный
Общий поток : 4861 Кбит/сек
Видео
Идентификатор : 224 (0xE0)
Формат : MPEG Video
Версия формата : Version 2
Профиль формата : Main@Main
Настройки формата : CustomMatrix / BVOP
Параметр BVOP формата : Да
Параметр матрицы формата : Выборочная
Параметр GOP формата : Variable
Структура изображения : Frame
Продолжительность : 40 м. 42 с.
Вид битрейта : Постоянный
Битрейт : 4508 Кбит/сек
Максимальный битрейт : 8300 Кбит/сек
Ширина : 720 пикселей
Высота : 576 пикселей
Соотношение сторон : 4:3
Частота кадров : 25,000 кадров/сек
Стандарт вещания : PAL
Цветовое пространство : YUV
Субдискретизация насыщенности : 4:2:0
Битовая глубина : 8 бит
Тип развёртки : Чересстрочная
Порядок развёртки : Верхнее поле первое
Метод сжатия : С потерями
Бит/(Пиксели*Кадры) : 0.435
Временной код первого кадра : 00:00:00:00
Оригинал временного кода : Group of pictures header
Размер потока : 1,28 Гбайт (93%)
Аудио
Идентификатор : 189 (0xBD)-128 (0x80)
Формат : AC-3
Формат/Информация : Audio Coding 3
Режим смешивания : DVD-Video
Продолжительность : 40 м. 42 с.
Вид битрейта : Постоянный
Битрейт : 256 Кбит/сек
Каналы : 2 канала
Расположение каналов : Front: L R
Частота : 48,0 КГц
Частота кадров : 31,250 кадров/сек (1536 SPF)
Битовая глубина : 16 бит
Метод сжатия : С потерями
Размер потока : 74,5 Мбайт (5%)
ServiceKind/String : Complete Main
 
Не забывайте говорить Спасибо. Не уходите с раздачи!   
Торрент: Зарегистрирован [30 июн 2018, 22:02] Скачать торрент
Скачать торрент
[ Размер 15.84 КБ / Просмотров 1 ]
Статус:
Проверен
 
.torrent скачан: 0 раз
Хэш: c95f546aa5157ef010486c24a07e65aa64f379a2
Размер: 6.02 ГБ (6 460 143 616 байт)
Стать Автором раздачи
 
 
Раздал: 0 байт
Скачал: 0 байт
Ратио: Inf.
Сообщения: 487468
Зарегистрирован: 17 апр 2014, 13:57


  • Похожие торренты
    Ответы
    Просмотры
    Последнее сообщение

Вернуться в Театр

Ресурс не предоставляет электронные версии произведений, а занимается лишь коллекционированием и каталогизацией ссылок, присылаемых и публикуемых на форуме нашими читателями. Если вы являетесь правообладателем какого-либо представленного материала и не желаете чтобы ссылка на него находилась в нашем каталоге, свяжитесь с нами и мы незамедлительно удалим её. Файлы для обмена на трекере предоставлены пользователями сайта, и администрация не несёт ответственности за их содержание. Просьба не заливать файлы, защищенные авторскими правами, а также файлы нелегального содержания!
cron