Остров собак / Isle of Dogs (Уэс Андерсон / Wes Anderson) [2018, США, Германия, Мультфильм, фантастика, фэнтези, драма, комедия, BDRemux 1080p] Dub (iTunes) + Original Eng

 
 Статистика раздачи 
Размер: 21.62 ГБ   |  Зарегистрирован: 10 июл 2018, 12:24   |   .torrent скачан: 0 раз
Сидеров: 1  [ 0 байт/сек ]     Личеров: 0  [ 0 байт/сек ]  
  

Остров собак / Isle of Dogs (Уэс Андерсон / Wes Anderson) [2018, США, Германия, Мультфильм, фантастика, фэнтези, драма, комедия, BDRemux 1080p] Dub (iTunes) + Original Eng

Сообщение Nakazhu » 10 июл 2018, 15:27

Остров собак / Isle of Dogs
Страна: США, Германия
Жанр: Мультфильм, фантастика, фэнтези, драма, комедия
Год выпуска: 2018
Продолжительность: 01:41:10
Перевод: Профессиональный (дублированный) iTunes
Субтитры: Русские FOCS, английские
Оригинальная аудиодорожка: английский
Режиссер: Уэс Андерсон / Wes Anderson
В ролях: Брайан Крэнстон, Кою Ранкин, Эдвард Нортон, Боб Бэлабан, Билл Мюррей, Джефф Голдблюм, Кунъити Номура, Акира Такаяма, Грета Гервиг, Фрэнсис МакДорманд
Описание: История 12-летнего мальчика Атари Кобаяши, опекаемого коррумпированным мэром Кобаяши. Когда по Указу последнего все домашние собаки города Мегасаки изгоняются на громадную свалку, Атари в одиночку отправляется на миниатюрном летательном аппарате на мусорный остров, чтобы найти своего верного пса по прозвищу Спотс. Там на острове вместе со стаей новых друзей-дворняг он начнет эпичное путешествие, которое решит будущую судьбу всей Префектуры.
Доп. информация: MPAА рейтинг PG-13 детям до 13 лет просмотр не желателен
IMDb 8.1 КП 8.3
Сэмпл: https://yadi.sk/i/yJq0Q7o73Z25q7
Тип релиза: BDRemux 1080p
Контейнер: MKV
Видео: MPEG-4 AVC, 1080p, 1920:1080, 26.8 Mb/s, 23.976 fps
Аудио: АС3, 6 ch, 48 kHz, 384 kbps Русский DUB iTunes
Аудио 2: DTS-HD MA 6 ch, 48 kHz, 3448 kbps, 24-bit (DTS Core: 6 ch, 48 kHz, 1509 kbps, 24-bit) Английский
Формат субтитров: softsub (SRT)
Код: Выделить всё
General
Unique ID                                : 267206348671681143757606503904834762932 (0xC906122180CB19ED6C97E4CC41A438B4)
Complete name                            : G:\ФИЛЬМЫ\RuTRACKER\Isle.of.Dogs.2018.BDRemux.1080p.mkv
Format                                   : Matroska
Format version                           : Version 4 / Version 2
File size                                : 21.6 GiB
Duration                                 : 1 h 41 min
Overall bit rate mode                    : Variable
Overall bit rate                         : 30.6 Mb/s
Encoded date                             : UTC 2018-07-10 11:17:06
Writing application                      : mkvmerge v20.0.0 ('I Am The Sun') 64-bit
Writing library                          : libebml v1.3.5 + libmatroska v1.4.8
Video
ID                                       : 1
Format                                   : AVC
Format/Info                              : Advanced Video Codec
Format profile                           : High@L4.1
Format settings                          : CABAC / 4 Ref Frames
Format settings, CABAC                   : Yes
Format settings, RefFrames               : 4 frames
Codec ID                                 : V_MPEG4/ISO/AVC
Duration                                 : 1 h 41 min
Bit rate mode                            : Variable
Bit rate                                 : 26.8 Mb/s
Maximum bit rate                         : 32.5 Mb/s
Width                                    : 1 920 pixels
Height                                   : 1 080 pixels
Display aspect ratio                     : 16:9
Frame rate mode                          : Constant
Frame rate                               : 23.976 (24000/1001) FPS
Color space                              : YUV
Chroma subsampling                       : 4:2:0
Bit depth                                : 8 bits
Scan type                                : Progressive
Bits/(Pixel*Frame)                       : 0.538
Stream size                              : 18.9 GiB (87%)
Language                                 : English
Default                                  : Yes
Forced                                   : No
Audio #1
ID                                       : 2
Format                                   : AC-3
Format/Info                              : Audio Coding 3
Codec ID                                 : A_AC3
Duration                                 : 1 h 41 min
Bit rate mode                            : Constant
Bit rate                                 : 384 kb/s
Channel(s)                               : 6 channels
Channel positions                        : Front: L C R, Side: L R, LFE
Sampling rate                            : 48.0 kHz
Frame rate                               : 31.250 FPS (1536 SPF)
Bit depth                                : 16 bits
Compression mode                         : Lossy
Stream size                              : 278 MiB (1%)
Title                                    : iTunes
Language                                 : Russian
Service kind                             : Complete Main
Default                                  : Yes
Forced                                   : Yes
Audio #2
ID                                       : 3
Format                                   : DTS
Format/Info                              : Digital Theater Systems
Format profile                           : MA / Core
Codec ID                                 : A_DTS
Duration                                 : 1 h 41 min
Bit rate mode                            : Variable / Constant
Bit rate                                 : 3 448 kb/s / 1 509 kb/s
Channel(s)                               : 6 channels
Channel positions                        : Front: L C R, Side: L R, LFE
Sampling rate                            : 48.0 kHz
Frame rate                               : 93.750 FPS (512 SPF)
Bit depth                                : 24 bits
Compression mode                         : Lossless / Lossy
Stream size                              : 2.44 GiB (11%)
Language                                 : English
Default                                  : No
Forced                                   : No
Text #1
ID                                       : 4
Format                                   : UTF-8
Codec ID                                 : S_TEXT/UTF8
Codec ID/Info                            : UTF-8 Plain Text
Duration                                 : 1 h 33 min
Bit rate                                 : 94 b/s
Count of elements                        : 1215
Stream size                              : 65.1 KiB (0%)
Language                                 : Russian
Default                                  : No
Forced                                   : No
Text #2
ID                                       : 5
Format                                   : UTF-8
Codec ID                                 : S_TEXT/UTF8
Codec ID/Info                            : UTF-8 Plain Text
Duration                                 : 1 h 33 min
Bit rate                                 : 56 b/s
Count of elements                        : 1203
Stream size                              : 38.8 KiB (0%)
Language                                 : English
Default                                  : No
Forced                                   : No
Menu
00:00:00.000                             : en:00:00:00.000
00:03:36.049                             : en:00:03:36.049
00:07:53.181                             : en:00:07:53.181
00:13:41.195                             : en:00:13:41.195
00:16:39.373                             : en:00:16:39.373
00:20:45.035                             : en:00:20:45.035
00:26:04.312                             : en:00:26:04.312
00:29:27.265                             : en:00:29:27.265
00:35:58.573                             : en:00:35:58.573
00:40:36.475                             : en:00:40:36.475
00:44:46.433                             : en:00:44:46.433
00:48:15.100                             : en:00:48:15.100
00:52:07.499                             : en:00:52:07.499
00:56:06.780                             : en:00:56:06.780
00:59:07.085                             : en:00:59:07.085
01:03:17.710                             : en:01:03:17.710
01:08:45.079                             : en:01:08:45.079
01:14:03.230                             : en:01:14:03.230
01:16:34.965                             : en:01:16:34.965
01:20:46.925                             : en:01:20:46.925
01:23:36.219                             : en:01:23:36.219
01:30:09.737                             : en:01:30:09.737
01:33:02.493                             : en:01:33:02.493
01:35:41.235                             : en:01:35:41.235
 
Не забывайте говорить Спасибо. Не уходите с раздачи!   
Торрент: Зарегистрирован [10 июл 2018, 12:24] Для скачивания .torrent
необходима регистрация
Или скачать с помощью
MediaGet
Статус:
Проверен
 
.torrent скачан: 0 раз
Хэш: 515b6592fe3dbcc2d4d8eab4614ec3cbef5dfbe6
Размер: 21.62 ГБ (23 209 220 901 байт)
Стать Автором раздачи
 
 
Раздал: 0 байт
Скачал: 0 байт
Ратио: Inf.
Сообщения: 487468
Зарегистрирован: 17 апр 2014, 13:57


  • Похожие торренты
    Ответы
    Просмотры
    Последнее сообщение

Вернуться в HD Video на модерации

Ресурс не предоставляет электронные версии произведений, а занимается лишь коллекционированием и каталогизацией ссылок, присылаемых и публикуемых на форуме нашими читателями. Если вы являетесь правообладателем какого-либо представленного материала и не желаете чтобы ссылка на него находилась в нашем каталоге, свяжитесь с нами и мы незамедлительно удалим её. Файлы для обмена на трекере предоставлены пользователями сайта, и администрация не несёт ответственности за их содержание. Просьба не заливать файлы, защищенные авторскими правами, а также файлы нелегального содержания!
cron