Детектив Конан: Уменьшившийся великий детектив / Meitantei Conan: Episode One - Chiisaku Natta Meitantei (2016) HDRip | L1

 
 Статистика раздачи 
Размер: 1.19 ГБ   |  Зарегистрирован: 10 июл 2018, 12:44   |   .torrent скачан: 0 раз
Сидеров: 1  [ 0 байт/сек ]     Личеров: 0  [ 0 байт/сек ]  
  

Детектив Конан: Уменьшившийся великий детектив / Meitantei Conan: Episode One - Chiisaku Natta Meitantei (2016) HDRip | L1

Сообщение explosiveone » 10 июл 2018, 13:14

Информация о фильме
Название: Детектив Конан: Эпизод первый: Уменьшившийся великий детектив
Оригинальное название: Meitantei Conan: Episode One - Chiisaku Natta Meitantei
Год выхода: 2016
Жанр: приключения, детектив
Режиссер: Ямамото Ясуйтиро

Описание:
"Истинный" первый эпизод анимэ "Детектив Конан", написанный самим мангакой Аоямой Госё.
Почему детектив-старшеклассник Кудо Шин'ичи превратился в Эдогаву Конана? Как получилось, что он перебрался в дом к Ран? Как оказались мужчины в чёрном на американских горках? Ремейк первых серий знаменитого детектива, с добавлением новых, ранее не показывавшихся по телеку эксклюзивных кадров, более полно раскрывающих сюжетную линию "Знаменитого детектива" и проливающих свет на многие неясности в телевизионной версии истории.

Доп. информация:


Релиз GSGroup

Страна: Япония
Студия: TMS
Продолжительность: ТВ-спэшл (1 эп.) 01:35:36
Перевод: Любительский одноголосый (Persona99)
Субтитры: русские перевод RuMagician & kolpakchi
Качество: HDRip
Формат видео: AVI
Видео: 720x400, 23.976 fps, 1378 Kbps, 8 bits
Аудио 1: AC3 48 КГц; 192 Кбит/сек , 2.0 Язык Русский (в составе контейнера) ; Озвучка: Любительский одноголосый (Persona99)
Аудио 2: AAC 48 КГц; 192 Кбит/сек , 6.0 оригинал (Японский)
Семпл

Код: Выделить всё
General
Complete name                            : Meitantei Conan Episode One (2016)Detective Conan - Episode One - Chiisaku Natta Meitantei [Persona99][720x400 XviD AC3].rus.jpn.avi
Format                                   : AVI
Format/Info                              : Audio Video Interleave
File size                                : 1.19 GiB
Duration                                 : 1h 35mn
Overall bit rate                         : 1 776 Kbps
Writing application                      : VirtualDubMod 1.5.10.2 (build 2540/release)
Writing library                          : VirtualDubMod build 2540/release

Video
ID                                       : 0
Format                                   : MPEG-4 Visual
Format profile                           : Advanced Simple@L5
Format settings, BVOP                    : 2
Format settings, QPel                    : No
Format settings, GMC                     : No warppoints
Format settings, Matrix                  : Default (H.263)
Codec ID                                 : XVID
Codec ID/Hint                            : XviD
Duration                                 : 1h 35mn
Bit rate                                 : 1 378 Kbps
Width                                    : 720 pixels
Height                                   : 400 pixels
Display aspect ratio                     : 16:9
Frame rate                               : 23.976 fps
Color space                              : YUV
Chroma subsampling                       : 4:2:0
Bit depth                                : 8 bits
Scan type                                : Progressive
Compression mode                         : Lossy
Bits/(Pixel*Frame)                       : 0.200
Stream size                              : 942 MiB (78%)
Writing library                          : XviD 67

Audio #1
ID                                       : 1
Format                                   : AC-3
Format/Info                              : Audio Coding 3
Mode extension                           : CM (complete main)
Format settings, Endianness              : Big
Codec ID                                 : 2000
Duration                                 : 1h 35mn
Bit rate mode                            : Constant
Bit rate                                 : 192 Kbps
Channel(s)                               : 2 channels
Channel positions                        : Front: L R
Sampling rate                            : 48.0 KHz
Compression mode                         : Lossy
Stream size                              : 131 MiB (11%)
Alignment                                : Split accross interleaves
Interleave, duration                     : 42 ms (1.00 video frame)
Interleave, preload duration             : 500 ms

Audio #2
ID                                       : 2
Format                                   : AC-3
Format/Info                              : Audio Coding 3
Mode extension                           : CM (complete main)
Format settings, Endianness              : Big
Codec ID                                 : 2000
Duration                                 : 1h 35mn
Bit rate mode                            : Constant
Bit rate                                 : 192 Kbps
Channel(s)                               : 6 channels
Channel positions                        : Front: L C R, Side: L R, LFE
Sampling rate                            : 48.0 KHz
Compression mode                         : Lossy
Stream size                              : 131 MiB (11%)
Alignment                                : Split accross interleaves
Interleave, duration                     : 42 ms (1.00 video frame)
Interleave, preload duration             : 500 ms

#01 Детектив Конан [ТВ] - ТВ (>887 эп.), адаптация манги, 1996
#02 Детектив Конан (фильм 01 Meitantei Conan: Tokei Jikake no Matenrou
) - п/ф, дополнение, 1997
#03 Детектив Конан (фильм 02 Meitantei Conan: 14-Banme no Target) - п/ф, дополнение, 1998
#04 Детектив Конан (фильм 03 Meitantei Conan: Seikimatsu no Majutsushi
) - п/ф, дополнение, 1999
#05 Детектив Конан (фильм 04 Meitantei Conan: Hitomi no Naka no Ansatsusha) - п/ф, дополнение, 2000
#06 Детектив Конан OVA-1 - OVA (1 эп.), дополнение, 2000
#07 Детектив Конан (фильм 05 Meitantei Conan: Tengoku e no Count Down) - п/ф, дополнение, 2001
#08 Детектив Конан (фильм 06 Meitantei Conan: Baker Street no Bourei
) - п/ф, дополнение, 2002
#09 Детектив Конан OVA-2 - OVA (1 эп.), дополнение, 2002
#10 Детектив Конан (фильм 07 Meitantei Conan: Meikyuu no Crossroad) - п/ф, дополнение, 2003
#11 Детектив Конан OVA-3 - OVA (1 эп.), дополнение, 2003
#12 Детектив Конан (фильм 08 Meitantei Conan: Ginyoku no Magician) - п/ф, дополнение, 2004
#13 Детектив Конан OVA-4 - OVA (1 эп.), дополнение, 2004
#14 Детектив Конан (фильм 09 Meitantei Conan: Suihei Senjou no Strategy) - п/ф, дополнение, 2005
#15 Детектив Конан OVA-5 - OVA (1 эп.), дополнение, 2005
#16 Meitantei Conan: Conan vs Kid - Shark & Jewel - к/ф, дополнение, 2005
#17 Детектив Конан OVA-6 - OVA (1 эп.), дополнение, 2006
#18 Детектив Конан (фильм 10) - п/ф, дополнение, 2006
#19 Meitantei Conan: Conan vs Kid - Shikkoku no Sniper - к/ф, дополнение, 2006
#20 Детектив Конан OVA-7 - OVA (1 эп.), дополнение, 2007
#21 Детектив Конан (фильм 11) - п/ф, дополнение, 2007
#22 Meitantei Conan Magic File - OVA (1 эп.), нарезка ТВ-сериала, 2007
#23 Детектив Конан OVA-8 - OVA (1 эп.), дополнение, 2008
#24 Детектив Конан (фильм 12) - п/ф, дополнение, 2008
#25 Meitantei Conan Magic File 2 - OVA (1 эп.), дополнение, 2008
#26 Детектив Конан (фильм 13) - п/ф, дополнение, 2009
#27 Meitantei Conan Magic File 3 - OVA (1 эп.), дополнение, 2009
#28 Детектив Конан OVA-9 - OVA (1 эп.), дополнение, 2009
#29 Детектив Конан (фильм 14) - п/ф, дополнение, 2010
#30 Meitantei Conan Magic File 4 - OVA (1 эп.), дополнение, 2010
#31 Детектив Конан OVA-10 - OVA (1 эп.), дополнение, 2010
#32 Детектив Конан (фильм 15) - п/ф, дополнение, 2011
#33 Detective Conan Magic File 2011 - OVA (1 эп.), дополнение, 2011
#34 Детектив Конан OVA-11 - OVA (1 эп.), дополнение, 2011
#35 Meitantei Conan vs. Wooo - Web (2 эп.), дополнение, 2011
#36 Детектив Конан (фильм 16) - п/ф, дополнение, 2012
#37 Meitantei Conan Bonus File: Fantasista no Hana - OVA (1 эп.), дополнение, 2012
#38 Детектив Конан OVA-12 - OVA (1 эп.), дополнение, 2012
#39 Детектив Конан (фильм 17) - п/ф, дополнение, 2013
#40 Детектив Конан (фильм 18) - п/ф, дополнение, 2014
#41 Edogawa Conan Shissou Jiken - ТВ-спэшл, дополнение, 2014
#42 Детектив Конан (фильм 19) - п/ф, дополнение, 2015
#43 Детектив Конан (фильм 20) - п/ф, дополнение, 2016
#44 Детектив Конан (фильм 21) - п/ф, дополнение, 2017
#45 Meitantei Conan: Episode One - Chiisaku Natta Meitantei - ТВ-спэшл (1 эп.), ремейк первого эпизода ТВ-сериала, 2016
#46 Детектив Конан (фильм 22) - п/ф, дополнение, 2018
 
Не забывайте говорить Спасибо. Не уходите с раздачи!   
Торрент: Зарегистрирован [10 июл 2018, 12:44] Скачать торрент
Скачать торрент
[ Размер 13.14 КБ / Просмотров 1 ]
Статус:
Проверен
 
.torrent скачан: 0 раз
Хэш: 5b7bae2bc44c7802523e0e8b8aaacf526117f0d5
Размер: 1.19 ГБ (1 276 707 836 байт)
Стать Автором раздачи
 
 
Раздал: 100 ГБ
Скачал: 0 байт
Ратио: Seed.
Сообщения: 103881
Зарегистрирован: 09 апр 2015, 22:31


  • Похожие торренты
    Ответы
    Просмотры
    Последнее сообщение

Вернуться в Аниме (Основной)

Ресурс не предоставляет электронные версии произведений, а занимается лишь коллекционированием и каталогизацией ссылок, присылаемых и публикуемых на форуме нашими читателями. Если вы являетесь правообладателем какого-либо представленного материала и не желаете чтобы ссылка на него находилась в нашем каталоге, свяжитесь с нами и мы незамедлительно удалим её. Файлы для обмена на трекере предоставлены пользователями сайта, и администрация не несёт ответственности за их содержание. Просьба не заливать файлы, защищенные авторскими правами, а также файлы нелегального содержания!
cron