Мистер Питкин в тылу врага / The Square Peg (1958) DVDRip-AVC | D

 
 Статистика раздачи 
Размер: 1.85 ГБ   |  Зарегистрирован: 10 июл 2018, 08:47   |   .torrent скачан: 0 раз
Сидеров: 1  [ 0 байт/сек ]     Личеров: 0  [ 0 байт/сек ]  
  

Мистер Питкин в тылу врага / The Square Peg (1958) DVDRip-AVC | D

Сообщение Lester » 10 июл 2018, 09:26

Информация о фильме
Название: Мистер Питкин в тылу врага
Оригинальное название: The Square Peg
Год выхода: 1958
Жанр: Комедия

Режиссер: Джон Пэдди Кастэйрс

В ролях: Норман Уисдом, Хонор Блэкмен, Эдвард Чэпман, Кэмпбелл Сингер, Хэтти Жак, Брайан Ворф, Теренс Александр, Джон Уорвик, Арнольд Белл, Андре Маранн

Роли дублировали: Георгий Вицин, Лучана Бабичкова, Михаил Колесников, Владимир Адлеров, Татьяна Панкова, Андрей Тарасов,

О фильме: Землекоп Питкин имел бронь, так как трудился на дорожных работах, но вышло так, что был заброшен с парашютом в тыл врага. Далее совершенно случайно он оказался двойником немецкого генерала. Можно себе представить, сколько смешных приключений и ситуаций произошло с мистером Питкиным в генеральской форме, когда он поехал инспектировать вражеские позиции. «Мистер Питкин в тылу врага» — кинокомедия режиссёра Джона Пэдди Кастэйрса, из серии о приключениях солдата Нормана Питкина. Название картины обыгрывает английский фразеологизм «A square peg in a round hole» — «квадратный колышек в круглую дырку» то есть: человек не на своём месте.
Фильм дублирован на киностудии имени Горького. Режиссёр дубляжа — Георгий Шепотинник.



Страна: Великобритания
Студия: The Rank Organisation Film Productions Ltd.
Продолжительность: 01:25:50
Перевод: Дублированный (Советский дубляж)

Файл
Кодек: H264
Качество: DVDRip-AVC
Видео: MPEG4 Video (H264) 1024x616 25fps, 2700 Kbps
Звук: Русский - Dolby AC3, 48000 Hz, 2ch, 192 kbps
Звук: Английский - Dolby AC3, 48000 Hz, 2ch, 192 kbps

Сэмпл


General
Unique ID : 248826287755178578587185105386271786709 (0xBB3233299F108BD1BE1C274B9C49C6D5)
Complete name : D:DVDRip1958 Мистер Питкин в тылу врага1958 Мистер Питкин в тылу врага.mkv
Format : Matroska
Format version : Version 4 / Version 2
File size : 1.85 GiB
Duration : 1 h 25 min
Overall bit rate : 3 086 kb/s
Movie name : 1958 Мистер Питкин в тылу врага/likko
Encoded date : UTC 2018-07-09 15:50:31
Writing application : mkvmerge v8.3.0 ('Over the Horizon') 64bit
Writing library : libebml v1.3.1 + libmatroska v1.4.2

Video
ID : 1
Format : AVC
Format/Info : Advanced Video Codec
Format profile : High@L4.1
Format settings : CABAC / 12 Ref Frames
Format settings, CABAC : Yes
Format settings, ReFrames : 12 frames
Codec ID : V_MPEG4/ISO/AVC
Duration : 1 h 25 min
Bit rate : 2 700 kb/s
Width : 1 024 pixels
Height : 616 pixels
Display aspect ratio : 5:3
Frame rate mode : Constant
Frame rate : 25.000 FPS
Color space : YUV
Chroma subsampling : 4:2:0
Bit depth : 8 bits
Scan type : Progressive
Bits/(Pixel*Frame) : 0.171
Stream size : 1.62 GiB (87%)
Title : 1958 Мистер Питкин в тылу врага
Writing library : x264 core 146 r2538 121396c
Encoding settings : cabac=1 / ref=12 / deblock=1:-1:-1 / analyse=0x3:0x133 / me=umh / subme=11 / psy=1 / psy_rd=1.11:0.15 / mixed_ref=1 / me_range=48 / chroma_me=1 / trellis=2 / 8x8dct=1 / cqm=0 / deadzone=21,11 / fast_pskip=0 / chroma_qp_offset=-3 / threads=18 / lookahead_threads=4 / sliced_threads=0 / nr=0 / decimate=1 / interlaced=0 / bluray_compat=0 / constrained_intra=0 / bframes=10 / b_pyramid=2 / b_adapt=2 / b_bias=0 / direct=3 / weightb=1 / open_gop=0 / weightp=2 / keyint=250 / keyint_min=25 / scenecut=40 / intra_refresh=0 / rc=2pass / mbtree=0 / bitrate=2700 / ratetol=1.0 / qcomp=0.60 / qpmin=0 / qpmax=69 / qpstep=4 / cplxblur=20.0 / qblur=0.5 / ip_ratio=1.40 / pb_ratio=1.30 / aq=1:1.00
Language : English
Default : Yes
Forced : No

Audio #1
ID : 2
Format : AC-3
Format/Info : Audio Coding 3
Codec ID : A_AC3
Duration : 1 h 25 min
Bit rate mode : Constant
Bit rate : 192 kb/s
Channel(s) : 2 channels
Channel positions : Front: L R
Sampling rate : 48.0 kHz
Frame rate : 31.250 FPS (1536 SPF)
Bit depth : 16 bits
Compression mode : Lossy
Stream size : 118 MiB (6%)
Title : Советский дубляж
Language : Russian
Service kind : Complete Main
Default : Yes
Forced : No

Audio #2
ID : 3
Format : AC-3
Format/Info : Audio Coding 3
Codec ID : A_AC3
Duration : 1 h 25 min
Bit rate mode : Constant
Bit rate : 192 kb/s
Channel(s) : 2 channels
Channel positions : Front: L R
Sampling rate : 48.0 kHz
Frame rate : 31.250 FPS (1536 SPF)
Bit depth : 16 bits
Compression mode : Lossy
Stream size : 118 MiB (6%)
Language : English
Service kind : Complete Main
Default : No
Forced : No

Menu
00:00:00.000 : en:Chapter 01
00:10:36.160 : en:Chapter 02
00:21:40.480 : en:Chapter 03
00:31:41.520 : en:Chapter 04
00:41:12.160 : en:Chapter 05
00:49:28.360 : en:Chapter 06
00:59:49.840 : en:Chapter 07
01:08:36.240 : en:Chapter 08
01:17:59.320 : en:Chapter 09


 
Не забывайте говорить Спасибо. Не уходите с раздачи!   
Торрент: Зарегистрирован [10 июл 2018, 08:47] Скачать торрент
Скачать торрент
[ Размер 19.38 КБ / Просмотров 4 ]
Статус:
Проверен
 
.torrent скачан: 0 раз
Хэш: a28ea38584caec12d9dd17a4c5e7c11b437685f3
Размер: 1.85 ГБ (1 986 460 190 байт)
Стать Автором раздачи
 
 
Раздал: 100 ГБ
Скачал: 0 байт
Ратио: Seed.
Сообщения: 131007
Зарегистрирован: 09 апр 2015, 23:00


  • Похожие торренты
    Ответы
    Просмотры
    Последнее сообщение

Вернуться в Зарубежное кино

Ресурс не предоставляет электронные версии произведений, а занимается лишь коллекционированием и каталогизацией ссылок, присылаемых и публикуемых на форуме нашими читателями. Если вы являетесь правообладателем какого-либо представленного материала и не желаете чтобы ссылка на него находилась в нашем каталоге, свяжитесь с нами и мы незамедлительно удалим её. Файлы для обмена на трекере предоставлены пользователями сайта, и администрация не несёт ответственности за их содержание. Просьба не заливать файлы, защищенные авторскими правами, а также файлы нелегального содержания!
cron