Verizon IndyCar Series 2018. Этап 11. Iowa Corn 300. Гонка. Viasat Sport HD [08.07.2018, Автоспорт, DVB-S2 Rip 720p, Рус/Анг]

 
 Статистика раздачи 
Размер: 5.35 ГБ   |  Зарегистрирован: 09 июл 2018, 09:34   |   .torrent скачан: 0 раз
Сидеров: 1  [ 0 байт/сек ]     Личеров: 0  [ 0 байт/сек ]  
  

Verizon IndyCar Series 2018. Этап 11. Iowa Corn 300. Гонка. Viasat Sport HD [08.07.2018, Автоспорт, DVB-S2 Rip 720p, Рус/Анг]

Сообщение Nakazhu » 09 июл 2018, 12:51

Verizon IndyCar Series 2018. Этап 11. Iowa Corn 300. Гонка. Viasat Sport HD
Вид спорта: Автоспорт
Описание: Гоночный уикенд 11 этапа сезона Индикар 2018 года.
О трассе: Iowa Speedway - это 0.875-мильный триовал с переменным бенкигом, который такой же как и на суперспидвеев. Один круг проходится примерно за 18 секунду. Самая короткая трасса тем не менее предъявляет выскокие требования к физической подготовки и сконцентрированности гонщиков. По всему периметру овала расположено второе поколение барьеров безопасности SAFER.
Автор рипа/записи: Ales
Качество: DVB-S2 Remux
Формат видео: MKV
Видео: H264, 1280x720P, 50 кадр/c, 4 000 kb/s
Аудио: MP2 2.0, 48.0 KHz, 192 kb/s
Язык комментариев:Русский (Сергей Беднарук)
[*]Английский (NBCSN)Дата/Год выпуска: 08.07.2018
2:55:05
Код: Выделить всё
General
Unique ID                                : 237804555618027614052645631079037799612 (0xB2E77DD02B149ED8943ACB4671100CBC)
Complete name                            : E:\Indycar2018\Indycar2018.R11.Iowa.Corn.300.Race.Viasat.Sport.HD.720P.Rus.Eng.mkv
Format                                   : Matroska
Format version                           : Version 4 / Version 2
File size                                : 5.35 GiB
Duration                                 : 2 h 55 min
Overall bit rate                         : 4 377 kb/s
Encoded date                             : UTC 2018-07-08 23:56:08
Writing application                      : mkvmerge v9.1.0 ('Little Earthquakes') 64bit
Writing library                          : libebml v1.3.3 + libmatroska v1.4.4
Video
ID                                       : 1
Format                                   : AVC
Format/Info                              : Advanced Video Codec
Format profile                           : High@L3.2
Format settings                          : 4 Ref Frames
Format settings, CABAC                   : No
Format settings, RefFrames               : 4 frames
Codec ID                                 : V_MPEG4/ISO/AVC
Duration                                 : 2 h 55 min
Bit rate                                 : 4 000 kb/s
Width                                    : 1 280 pixels
Height                                   : 720 pixels
Display aspect ratio                     : 16:9
Frame rate mode                          : Constant
Frame rate                               : 50.000 FPS
Color space                              : YUV
Chroma subsampling                       : 4:2:0
Bit depth                                : 8 bits
Scan type                                : Progressive
Bits/(Pixel*Frame)                       : 0.087
Stream size                              : 4.88 GiB (91%)
Writing library                          : x264 core 148 r2705kMod 3f5ed56
Encoding settings                        : cabac=0 / ref=1 / deblock=0:0:0 / analyse=0x3:0x113 / me=hex / subme=2 / psy=1 / fade_compensate=0.10 / psy_rd=1.00:0.00 / mixed_ref=0 / me_range=16 / chroma_me=1 / trellis=0 / 8x8dct=1 / cqm=0 / deadzone=21,11 / fast_pskip=1 / chroma_qp_offset=0 / threads=2 / lookahead_threads=1 / sliced_threads=0 / nr=0 / decimate=1 / interlaced=0 / bluray_compat=0 / constrained_intra=0 / fgo=0 / bframes=3 / b_pyramid=2 / b_adapt=1 / b_bias=0 / direct=1 / weightb=0 / open_gop=0 / weightp=0 / keyint=250 / keyint_min=25 / scenecut=40 / intra_refresh=0 / rc_lookahead=10 / rc=abr / mbtree=1 / bitrate=4000 / ratetol=1.0 / qcomp=0.60 / qpmin=0 / qpmax=69 / qpstep=4 / ip_ratio=1.40 / aq=1:1.00
Default                                  : Yes
Forced                                   : No
Audio #1
ID                                       : 2
Format                                   : MPEG Audio
Format version                           : Version 1
Format profile                           : Layer 2
Codec ID                                 : A_MPEG/L2
Codec ID/Hint                            : MP2
Duration                                 : 2 h 55 min
Bit rate mode                            : Constant
Bit rate                                 : 192 kb/s
Channel(s)                               : 2 channels
Sampling rate                            : 48.0 kHz
Frame rate                               : 41.637 FPS (1153 SPF)
Compression mode                         : Lossy
Stream size                              : 240 MiB (4%)
Language                                 : Russian
Default                                  : Yes
Forced                                   : No
Audio #2
ID                                       : 3
Format                                   : MPEG Audio
Format version                           : Version 1
Format profile                           : Layer 2
Codec ID                                 : A_MPEG/L2
Codec ID/Hint                            : MP2
Duration                                 : 2 h 55 min
Bit rate mode                            : Constant
Bit rate                                 : 192 kb/s
Channel(s)                               : 2 channels
Sampling rate                            : 48.0 kHz
Frame rate                               : 41.637 FPS (1153 SPF)
Compression mode                         : Lossy
Stream size                              : 240 MiB (4%)
Language                                 : English
Default                                  : No
Forced                                   : No
 
Не забывайте говорить Спасибо. Не уходите с раздачи!   
Торрент: Зарегистрирован [09 июл 2018, 09:34] Скачать торрент
Скачать торрент
[ Размер 54.16 КБ / Просмотров 1 ]
Статус:
Проверен
 
.torrent скачан: 0 раз
Хэш: 82ead517f6f99d97f1aaf7dce885c65fe30eda88
Размер: 5.35 ГБ (5 748 090 852 байт)
Стать Автором раздачи
 
 
Раздал: 0 байт
Скачал: 0 байт
Ратио: Inf.
Сообщения: 487468
Зарегистрирован: 17 апр 2014, 13:57


  • Похожие торренты
    Ответы
    Просмотры
    Последнее сообщение

Вернуться в Автоспорт

Ресурс не предоставляет электронные версии произведений, а занимается лишь коллекционированием и каталогизацией ссылок, присылаемых и публикуемых на форуме нашими читателями. Если вы являетесь правообладателем какого-либо представленного материала и не желаете чтобы ссылка на него находилась в нашем каталоге, свяжитесь с нами и мы незамедлительно удалим её. Файлы для обмена на трекере предоставлены пользователями сайта, и администрация не несёт ответственности за их содержание. Просьба не заливать файлы, защищенные авторскими правами, а также файлы нелегального содержания!
cron