В тылу врага / Behind Enemy Lines (2001) WEB-DL 1080p | D, P, A | Open Matte

 
 Статистика раздачи 
Размер: 12.75 ГБ   |  Зарегистрирован: 09 июл 2018, 11:59   |   .torrent скачан: 0 раз
Сидеров: 1  [ 0 байт/сек ]     Личеров: 0  [ 0 байт/сек ]  
  

В тылу врага / Behind Enemy Lines (2001) WEB-DL 1080p | D, P, A | Open Matte

Сообщение Lester » 09 июл 2018, 12:47

Информация о фильме
Название: В тылу врага
Оригинальное название: Behind Enemy Lines
Год выхода: 2001
Жанр: боевик, триллер, драма, военный
Режиссер: Джон Мур
В ролях: Оуэн Уилсон, Владимир Машков, Джин Хэкмен, Гэбриел Махт, Чарльз Малик Уитфилд, Дэвид Кит, Олек Крупа, Жоаким ди Алмейда, Марко Игонда, Эял Поделл

О фильме:
Молодой лейтенант ВВС США Крис Бернетт, один из лучших военно-морских летчиков, по жизни мечтает о том, чтобы ему выпал шанс поучаствовать в настоящих боевых действиях вместо того, чтобы наблюдать за тренировками своих коллег. Однако его командир, адмирал Рейгарт считает, что Крис еще не готов… Да и боевых действий-то особо как-то не предвидится.

Но вот, во время одной из разведывательных миссий, Бернетт фотографирует то, что не было предназначено для чужих глаз и его самолет сбивают. Летчик оказывается в тылу врага, который хочет уничтожить шпиона. Время идет, и адмирал Рейгарт, рискуя своей карьерой, решает нарушить все правила и организовать спасательную операцию, чтобы вернуть своего ученика…


Выпущено: Twentieth Century Fox Film Corporation, Davis Entertainment
Страна: США
Продолжительность: 1:45:58
Перевод: Дублированный + Профессиональный (многоголосый закадровый) + Авторский (одноголосый закадровый)
Субтитры: Русские, английские

Файл
Качество: WEB-DL 1080p | Open Matte | Amazon | BLUEBIRD
Видео: MPEG-4 AVC, 11500 Кбит/с, 1920x1080, 23.976 кадр/с
Аудио#1: Russian: 48 kHz, DTS, 3/2 (L,C,R,l,r) + LFE ch, ~768 |Дублированный|
Аудио#2: Russian: 48 kHz, DTS, 3/2 (L,C,R,l,r) + LFE ch, ~1509 |Многоголосый закадровый, Карусель|
Аудио#3: Russian: 48 kHz, DTS, 3/2 (L,C,R,l,r) + LFE ch, ~1509 |Одноголосый закадровый, Ю. Живов|
Аудио#4: English: 48 kHz, DTS, 3/2 (L,C,R,l,r) + LFE ch, ~1509 kbps avg
Аудио#5: English: 48 kHz, AC3, 2/0 (L,R) ch, ~224.00 kbps avg |Комментарии, Джона Мура и Пола Мартина Смита|
Аудио#6: English: 48 kHz, AC3, 2/0 (L,R) ch, ~224.00 kbps avg |Комментарии, Джона Дэвиса и Вика Годфри|

Blu-ray vs WEB DL Amazon

ЦитатаКто-то писал:
Исходник видео WEB-DL Amazon STARZ (Периодически появляется логотип)
Open Matte версия фильма, имеет большее наполнение кадра, по сравнению с блюрэй.
General
Unique ID : 14556594783992583847428540981398836815 (0xAF37F889C9D316D8C307EFF5235964F)
Complete name : F:DeleteВ тылу врага (2001) WEB-DL 1080p [Open Matte] -BLUEBIRD.mkv
Format : Matroska
Format version : Version 4 / Version 2
File size : 12.7 GiB
Duration : 1 h 46 min
Overall bit rate mode : Variable
Overall bit rate : 17.2 Mb/s
Encoded date : UTC 2018-07-06 20:14:35
Writing application : mkvmerge v24.0.0 ('Beyond The Pale') 64-bit
Writing library : libebml v1.3.6 + libmatroska v1.4.9

Video
ID : 1
Format : AVC
Format/Info : Advanced Video Codec
Format profile : High@L4
Format settings : CABAC / 4 Ref Frames
Format settings, CABAC : Yes
Format settings, ReFrames : 4 frames
Codec ID : V_MPEG4/ISO/AVC
Duration : 1 h 46 min
Bit rate mode : Variable
Bit rate : 11.1 Mb/s
Maximum bit rate : 15.0 Mb/s
Width : 1 920 pixels
Height : 1 080 pixels
Display aspect ratio : 16:9
Frame rate mode : Constant
Frame rate : 23.976 (24000/1001) FPS
Color space : YUV
Chroma subsampling : 4:2:0
Bit depth : 8 bits
Scan type : Progressive
Bits/(Pixel*Frame) : 0.224
Stream size : 8.25 GiB (65%)
Default : Yes
Forced : No
Color range : Limited
Color primaries : BT.709
Transfer characteristics : BT.709
Matrix coefficients : BT.709

Audio #1
ID : 2
Format : DTS
Format/Info : Digital Theater Systems
Codec ID : A_DTS
Duration : 1 h 46 min
Bit rate mode : Constant
Bit rate : 755 kb/s
Channel(s) : 6 channels
Channel positions : Front: L C R, Side: L R, LFE
Sampling rate : 48.0 kHz
Frame rate : 93.750 FPS (512 SPF)
Bit depth : 24 bits
Compression mode : Lossy
Stream size : 572 MiB (4%)
Title : Дубляж
Language : Russian
Default : Yes
Forced : No

Audio #2
ID : 3
Format : DTS
Format/Info : Digital Theater Systems
Codec ID : A_DTS
Duration : 1 h 46 min
Bit rate mode : Constant
Bit rate : 1 510 kb/s
Channel(s) : 6 channels
Channel positions : Front: L C R, Side: L R, LFE
Sampling rate : 48.0 kHz
Frame rate : 93.750 FPS (512 SPF)
Bit depth : 24 bits
Compression mode : Lossy
Stream size : 1.12 GiB (9%)
Title : Карусель
Language : Russian
Default : No
Forced : No

Audio #3
ID : 4
Format : DTS
Format/Info : Digital Theater Systems
Codec ID : A_DTS
Duration : 1 h 46 min
Bit rate mode : Constant
Bit rate : 1 510 kb/s
Channel(s) : 6 channels
Channel positions : Front: L C R, Side: L R, LFE
Sampling rate : 48.0 kHz
Frame rate : 93.750 FPS (512 SPF)
Bit depth : 24 bits
Compression mode : Lossy
Stream size : 1.12 GiB (9%)
Title : Ю.Живов
Language : Russian
Default : No
Forced : No

Audio #4
ID : 5
Format : DTS
Format/Info : Digital Theater Systems
Codec ID : A_DTS
Duration : 1 h 46 min
Bit rate mode : Constant
Bit rate : 1 510 kb/s
Channel(s) : 6 channels
Channel positions : Front: L C R, Side: L R, LFE
Sampling rate : 48.0 kHz
Frame rate : 93.750 FPS (512 SPF)
Bit depth : 24 bits
Compression mode : Lossy
Stream size : 1.12 GiB (9%)
Language : English
Default : No
Forced : No

Audio #5
ID : 6
Format : AC-3
Format/Info : Audio Coding 3
Codec ID : A_AC3
Duration : 1 h 46 min
Bit rate mode : Constant
Bit rate : 224 kb/s
Channel(s) : 2 channels
Channel positions : Front: L R
Sampling rate : 48.0 kHz
Frame rate : 31.250 FPS (1536 SPF)
Bit depth : 16 bits
Compression mode : Lossy
Stream size : 170 MiB (1%)
Title : Комментарии, Джона Мура и Пола Мартина Смита
Language : English
Service kind : Complete Main
Default : No
Forced : No

Audio #6
ID : 7
Format : AC-3
Format/Info : Audio Coding 3
Codec ID : A_AC3
Duration : 1 h 46 min
Bit rate mode : Constant
Bit rate : 224 kb/s
Channel(s) : 2 channels
Channel positions : Front: L R
Sampling rate : 48.0 kHz
Frame rate : 31.250 FPS (1536 SPF)
Bit depth : 16 bits
Compression mode : Lossy
Stream size : 170 MiB (1%)
Title : Комментарии, Джона Дэвиса и Вика Годфри
Language : English
Service kind : Complete Main
Default : No
Forced : No

Text #1
ID : 8
Format : UTF-8
Codec ID : S_TEXT/UTF8
Codec ID/Info : UTF-8 Plain Text
Language : Russian
Default : No
Forced : No

Text #2
ID : 9
Format : UTF-8
Codec ID : S_TEXT/UTF8
Codec ID/Info : UTF-8 Plain Text
Language : English
Default : No
Forced : No

Text #3
ID : 10
Format : UTF-8
Codec ID : S_TEXT/UTF8
Codec ID/Info : UTF-8 Plain Text
Title : SDH Amazon
Language : English
Default : No
Forced : No
 
Не забывайте говорить Спасибо. Не уходите с раздачи!   
Торрент: Зарегистрирован [09 июл 2018, 11:59] Скачать торрент
Скачать торрент
[ Размер 64.72 КБ / Просмотров 6 ]
Статус:
Проверен
 
.torrent скачан: 0 раз
Хэш: 958ca03c81321b6322aebd7aa2e2fe6e1d447a2d
Размер: 12.75 ГБ (13 688 651 039 байт)
Стать Автором раздачи
 
 
Раздал: 100 ГБ
Скачал: 0 байт
Ратио: Seed.
Сообщения: 131003
Зарегистрирован: 09 апр 2015, 23:00


  • Похожие торренты
    Ответы
    Просмотры
    Последнее сообщение

Вернуться в Зарубежные фильмы 2001-2005 года

Ресурс не предоставляет электронные версии произведений, а занимается лишь коллекционированием и каталогизацией ссылок, присылаемых и публикуемых на форуме нашими читателями. Если вы являетесь правообладателем какого-либо представленного материала и не желаете чтобы ссылка на него находилась в нашем каталоге, свяжитесь с нами и мы незамедлительно удалим её. Файлы для обмена на трекере предоставлены пользователями сайта, и администрация не несёт ответственности за их содержание. Просьба не заливать файлы, защищенные авторскими правами, а также файлы нелегального содержания!
cron