(Jpop / Enka) [CD] Cheuni (チェウニ) - Best & Best - 2011, FLAC (image+.cue), lossless

 
 Статистика раздачи 
Размер: 859.75 МБ   |  Зарегистрирован: 09 июл 2018, 08:13   |   .torrent скачан: 0 раз
Сидеров: 1  [ 0 байт/сек ]     Личеров: 0  [ 0 байт/сек ]  
  

(Jpop / Enka) [CD] Cheuni (チェウニ) - Best & Best - 2011, FLAC (image+.cue), lossless

Сообщение Nakazhu » 09 июл 2018, 11:19

Cheuni (チェウニ) / Best & Best
Жанр: Jpop / Enka
Носитель: CD
Страна-производитель диска (релиза): Japan
Год издания: 2011
Издатель (лейбл): Teichiku Records
Номер по каталогу: TECE-3030
Страна исполнителя (группы): Japan
Аудиокодек: FLAC (*.flac)
Тип рипа: image+.cue
Битрейт аудио: lossless
Продолжительность: CD1 [1:00:54], CD2 [1:02:19]
Источник (релизер): karejo89
Наличие сканов в содержимом раздачи: да
Треклист:
CD1:
1 TOKYO NO KAREHA
東京の枯葉 ~ニューバージョン~
2 YUKI HA.BALLAD NO YOUNI...
雪は、バラードのように…
3 GLASS NO TOKYO TOWER
ガラスの東京タワー
4 HIRENKA
悲恋歌
5 ORIENTAL LULLABY
オリエンタル・ララバイ
6 NARITA HATSU
NARITA発
7 KOI TO WINE TO MYSTERY
恋とワインとミステリー
8 MEMORY RAIN
メモリー・レイン
9 LOVE STORY WO MOUICHIDO
ラブストーリーをもう一度
10 TOMADOI ROUGE
とまどいルージュ
11 OMOIDE YO
おもいでよ
12 FUYU NO HIMAWARI
冬のひまわり
13 NAKI NAGARA YUME WO MITE
泣きながら夢を見て
CD2:
1 TOKYO TWILIGHT
トーキョー・トワイライト
2 TOKYO NI YUKI GA FURU
Tokyoに雪が降る
3 HOSHIZORA NO TOKYO
星空のトーキョー
4 TOKYO STORY
トーキョー・ストーリー
5 SAIAI NO HITO
最愛のひと
6 SEPIA IRO NO AME
セピア色の雨
7 AI NO SILHOUETTE
愛のシルエット
8 MOONLIGHT EXPRESS
ムーンライト・エクスプレス
9 AISARETEMO-SOREZORE NO AKI-
愛されても~それぞれの秋~
10 JIDAI OKURE NO ONNA NI NARITAI
時代遅れの女になりたい
11 IKEGAMISEN
池上線
12 TASOGARE NO CONCERTO
黄昏のコンチェルト
13 KONO UTA WO ANATA NI
この歌をあなたに
Код: Выделить всё
[CD1]:
Exact Audio Copy V1.3 from 2. September 2016
EAC extraction logfile from 8. July 2018, 17:24
Cheuni / Cheuni Best & Best
Used drive  : PIONEER DVD-RW  DVR-220   Adapter: 1  ID: 0
Read mode               : Secure
Utilize accurate stream : Yes
Defeat audio cache      : Yes
Make use of C2 pointers : No
Read offset correction                      : 6
Overread into Lead-In and Lead-Out          : No
Fill up missing offset samples with silence : Yes
Delete leading and trailing silent blocks   : No
Null samples used in CRC calculations       : Yes
Used interface                              : Native Win32 interface for Win NT & 2000
Used output format              : User Defined Encoder
Selected bitrate                : 128 kBit/s
Quality                         : High
Add ID3 tag                     : No
Command line compressor         : C:\Program Files (x86)\Exact Audio Copy\flac-1.3.2-win\flac-1.3.2-win\win64\flac.exe
Additional command line options : -V -8 -T "Date=%year%" -T "Genre=%genre%" %source%
TOC of the extracted CD
     Track |   Start  |  Length  | Start sector | End sector
    ---------------------------------------------------------
        1  |  0:00.00 |  4:41.12 |         0    |    21086
        2  |  4:41.12 |  4:41.52 |     21087    |    42213
        3  |  9:22.64 |  5:03.73 |     42214    |    65011
        4  | 14:26.62 |  4:10.04 |     65012    |    83765
        5  | 18:36.66 |  4:50.49 |     83766    |   105564
        6  | 23:27.40 |  4:15.50 |    105565    |   124739
        7  | 27:43.15 |  4:53.34 |    124740    |   146748
        8  | 32:36.49 |  4:59.57 |    146749    |   169230
        9  | 37:36.31 |  5:15.73 |    169231    |   192928
       10  | 42:52.29 |  4:41.01 |    192929    |   214004
       11  | 47:33.30 |  4:19.51 |    214005    |   233480
       12  | 51:53.06 |  4:20.52 |    233481    |   253032
       13  | 56:13.58 |  4:39.67 |    253033    |   274024
Range status and errors
Selected range
     Filename C:\Users\Anton\Desktop\cheuni\1\Cheuni - Cheuni Best & Best.wav
     Peak level 100.0 %
     Extraction speed 7.2 X
     Range quality 99.9 %
     Test CRC 4CDE6189
     Copy CRC 4CDE6189
     Copy OK
No errors occurred
AccurateRip summary
Track  1  accurately ripped (confidence 1)  [EF8A4910]  (AR v2)
Track  2  accurately ripped (confidence 1)  [759DCF29]  (AR v2)
Track  3  accurately ripped (confidence 1)  [0C0E1940]  (AR v2)
Track  4  accurately ripped (confidence 1)  [7CAA57B0]  (AR v2)
Track  5  accurately ripped (confidence 1)  [64E91669]  (AR v2)
Track  6  accurately ripped (confidence 1)  [881F55E7]  (AR v2)
Track  7  accurately ripped (confidence 1)  [080983A5]  (AR v2)
Track  8  accurately ripped (confidence 1)  [66EB03EB]  (AR v2)
Track  9  accurately ripped (confidence 1)  [9C92BA1D]  (AR v2)
Track 10  accurately ripped (confidence 1)  [DEC7F314]  (AR v2)
Track 11  accurately ripped (confidence 1)  [42667318]  (AR v2)
Track 12  accurately ripped (confidence 1)  [948DA061]  (AR v2)
Track 13  accurately ripped (confidence 1)  [00A0D9D1]  (AR v2)
All tracks accurately ripped
End of status report
---- CUETools DB Plugin V2.1.6
[CTDB TOCID: 5Zmix9niScO_LY6R9UUmJZciE1s-] found
Submit result: 5Zmix9niScO_LY6R9UUmJZciE1s- has been confirmed
Track | CTDB Status
  1   | (6/6) Accurately ripped
  2   | (6/6) Accurately ripped
  3   | (6/6) Accurately ripped
  4   | (6/6) Accurately ripped
  5   | (6/6) Accurately ripped
  6   | (6/6) Accurately ripped
  7   | (6/6) Accurately ripped
  8   | (6/6) Accurately ripped
  9   | (6/6) Accurately ripped
 10   | (6/6) Accurately ripped
 11   | (6/6) Accurately ripped
 12   | (6/6) Accurately ripped
 13   | (6/6) Accurately ripped
==== Log checksum 5D81770F237418825EB9AE68E4B55010DD400470920B00BA4C15BB424B454F20 ====
[CD2]:
Exact Audio Copy V1.3 from 2. September 2016
EAC extraction logfile from 8. July 2018, 17:47
Cheuni / Cheuni Best & Best
Used drive  : PIONEER DVD-RW  DVR-220   Adapter: 1  ID: 0
Read mode               : Secure
Utilize accurate stream : Yes
Defeat audio cache      : Yes
Make use of C2 pointers : No
Read offset correction                      : 6
Overread into Lead-In and Lead-Out          : No
Fill up missing offset samples with silence : Yes
Delete leading and trailing silent blocks   : No
Null samples used in CRC calculations       : Yes
Used interface                              : Native Win32 interface for Win NT & 2000
Used output format              : User Defined Encoder
Selected bitrate                : 128 kBit/s
Quality                         : High
Add ID3 tag                     : No
Command line compressor         : C:\Program Files (x86)\Exact Audio Copy\flac-1.3.2-win\flac-1.3.2-win\win64\flac.exe
Additional command line options : -V -8 -T "Date=%year%" -T "Genre=%genre%" %source%
TOC of the extracted CD
     Track |   Start  |  Length  | Start sector | End sector
    ---------------------------------------------------------
        1  |  0:00.00 |  4:52.37 |         0    |    21936
        2  |  4:52.37 |  5:22.22 |     21937    |    46108
        3  | 10:14.59 |  4:51.58 |     46109    |    67991
        4  | 15:06.42 |  5:08.20 |     67992    |    91111
        5  | 20:14.62 |  4:54.72 |     91112    |   113233
        6  | 25:09.59 |  4:40.11 |    113234    |   134244
        7  | 29:49.70 |  4:35.41 |    134245    |   154910
        8  | 34:25.36 |  4:38.71 |    154911    |   175831
        9  | 39:04.32 |  4:29.24 |    175832    |   196030
       10  | 43:33.56 |  4:24.49 |    196031    |   215879
       11  | 47:58.30 |  4:22.17 |    215880    |   235546
       12  | 52:20.47 |  3:53.62 |    235547    |   253083
       13  | 56:14.34 |  6:04.61 |    253084    |   280444
Range status and errors
Selected range
     Filename C:\Users\Anton\Desktop\cheuni\2\Cheuni - Cheuni Best & Best.wav
     Peak level 99.8 %
     Extraction speed 7.3 X
     Range quality 100.0 %
     Test CRC 2BDF51DB
     Copy CRC 2BDF51DB
     Copy OK
No errors occurred
AccurateRip summary
Track  1  accurately ripped (confidence 1)  [A4A805AC]  (AR v2)
Track  2  accurately ripped (confidence 1)  [3E65B1EB]  (AR v2)
Track  3  accurately ripped (confidence 1)  [8A950D97]  (AR v2)
Track  4  accurately ripped (confidence 1)  [1E881D2F]  (AR v2)
Track  5  accurately ripped (confidence 1)  [210C121E]  (AR v2)
Track  6  accurately ripped (confidence 1)  [87F335FD]  (AR v2)
Track  7  accurately ripped (confidence 1)  [168BE2CA]  (AR v2)
Track  8  accurately ripped (confidence 1)  [31C1A983]  (AR v2)
Track  9  accurately ripped (confidence 1)  [7939FDEC]  (AR v2)
Track 10  accurately ripped (confidence 1)  [48055EBE]  (AR v2)
Track 11  accurately ripped (confidence 1)  [47C249BC]  (AR v2)
Track 12  accurately ripped (confidence 1)  [1DFAE030]  (AR v2)
Track 13  accurately ripped (confidence 1)  [0628BE95]  (AR v2)
All tracks accurately ripped
End of status report
---- CUETools DB Plugin V2.1.6
[CTDB TOCID: KuDydZ7PYHwtnwamUM9U1FRvamo-] found
Submit result: KuDydZ7PYHwtnwamUM9U1FRvamo- has been confirmed
Track | CTDB Status
  1   | (6/6) Accurately ripped
  2   | (6/6) Accurately ripped
  3   | (6/6) Accurately ripped
  4   | (6/6) Accurately ripped
  5   | (6/6) Accurately ripped
  6   | (6/6) Accurately ripped
  7   | (6/6) Accurately ripped
  8   | (6/6) Accurately ripped
  9   | (6/6) Accurately ripped
 10   | (6/6) Accurately ripped
 11   | (5/6) Accurately ripped
 12   | (5/6) Accurately ripped
 13   | (5/6) Accurately ripped
==== Log checksum BDEB63E0084B065F71BFC9230237CEAAEDBE21B12D5D5F6D61B43B81E86E0C8A ====
Код: Выделить всё
[CD1]:
REM GENRE JPop
REM DATE 2011
REM DISCID C90E450D
REM COMMENT "ExactAudioCopy v1.3"
PERFORMER "Cheuni"
TITLE "Cheuni Best & Best"
REM COMPOSER ""
FILE "Cheuni - Cheuni Best & Best.flac" WAVE
  TRACK 01 AUDIO
    TITLE "TOKYO NO KAREHA"
    PERFORMER "Cheuni"
    REM COMPOSER ""
    INDEX 01 00:00:00
  TRACK 02 AUDIO
    TITLE "YUKI HA.BALLAD NO YOUNI..."
    PERFORMER "Cheuni"
    REM COMPOSER ""
    INDEX 00 04:39:12
    INDEX 01 04:41:12
  TRACK 03 AUDIO
    TITLE "GLASS NO TOKYO TOWER"
    PERFORMER "Cheuni"
    REM COMPOSER ""
    INDEX 00 09:20:64
    INDEX 01 09:22:64
  TRACK 04 AUDIO
    TITLE "HIRENKA"
    PERFORMER "Cheuni"
    REM COMPOSER ""
    INDEX 00 14:24:62
    INDEX 01 14:26:62
  TRACK 05 AUDIO
    TITLE "ORIENTAL LULLABY"
    PERFORMER "Cheuni"
    REM COMPOSER ""
    INDEX 00 18:34:66
    INDEX 01 18:36:66
  TRACK 06 AUDIO
    TITLE "NARITA HATSU"
    PERFORMER "Cheuni"
    REM COMPOSER ""
    INDEX 00 23:25:40
    INDEX 01 23:27:40
  TRACK 07 AUDIO
    TITLE "KOI TO WINE TO MYSTERY"
    PERFORMER "Cheuni"
    REM COMPOSER ""
    INDEX 00 27:41:15
    INDEX 01 27:43:15
  TRACK 08 AUDIO
    TITLE "MEMORY RAIN"
    PERFORMER "Cheuni"
    REM COMPOSER ""
    INDEX 00 32:34:49
    INDEX 01 32:36:49
  TRACK 09 AUDIO
    TITLE "LOVE STORY WO MOUICHIDO"
    PERFORMER "Cheuni"
    REM COMPOSER ""
    INDEX 00 37:34:31
    INDEX 01 37:36:31
  TRACK 10 AUDIO
    TITLE "TOMADOI ROUGE"
    PERFORMER "Cheuni"
    REM COMPOSER ""
    INDEX 00 42:50:29
    INDEX 01 42:52:29
  TRACK 11 AUDIO
    TITLE "OMOIDE YO"
    PERFORMER "Cheuni"
    REM COMPOSER ""
    INDEX 00 47:31:30
    INDEX 01 47:33:30
  TRACK 12 AUDIO
    TITLE "FUYU NO HIMAWARI"
    PERFORMER "Cheuni"
    REM COMPOSER ""
    INDEX 00 51:51:06
    INDEX 01 51:53:06
  TRACK 13 AUDIO
    TITLE "NAKI NAGARA YUME WO MITE"
    PERFORMER "Cheuni"
    REM COMPOSER ""
    INDEX 00 56:11:58
    INDEX 01 56:13:58
[CD2]:
REM GENRE JPop
REM DATE 2011
REM DISCID AE0E9B0D
REM COMMENT "ExactAudioCopy v1.3"
PERFORMER "Cheuni"
TITLE "Cheuni Best & Best"
REM COMPOSER ""
FILE "Cheuni - Cheuni Best & Best.flac" WAVE
  TRACK 01 AUDIO
    TITLE "TOKYO TWILIGHT"
    PERFORMER "Cheuni"
    REM COMPOSER ""
    INDEX 01 00:00:00
  TRACK 02 AUDIO
    TITLE "TOKYO NI YUKI GA FURU"
    PERFORMER "Cheuni"
    REM COMPOSER ""
    INDEX 00 04:50:37
    INDEX 01 04:52:37
  TRACK 03 AUDIO
    TITLE "HOSHIZORA NO TOKYO"
    PERFORMER "Cheuni"
    REM COMPOSER ""
    INDEX 00 10:12:59
    INDEX 01 10:14:59
  TRACK 04 AUDIO
    TITLE "TOKYO STORY"
    PERFORMER "Cheuni"
    REM COMPOSER ""
    INDEX 00 15:04:42
    INDEX 01 15:06:42
  TRACK 05 AUDIO
    TITLE "SAIAI NO HITO"
    PERFORMER "Cheuni"
    REM COMPOSER ""
    INDEX 00 20:12:62
    INDEX 01 20:14:62
  TRACK 06 AUDIO
    TITLE "SEPIA IRO NO AME"
    PERFORMER "Cheuni"
    REM COMPOSER ""
    INDEX 00 25:07:59
    INDEX 01 25:09:59
  TRACK 07 AUDIO
    TITLE "AI NO SILHOUETTE"
    PERFORMER "Cheuni"
    REM COMPOSER ""
    INDEX 00 29:47:70
    INDEX 01 29:49:70
  TRACK 08 AUDIO
    TITLE "MOONLIGHT EXPRESS"
    PERFORMER "Cheuni"
    REM COMPOSER ""
    INDEX 00 34:23:36
    INDEX 01 34:25:36
  TRACK 09 AUDIO
    TITLE "AISARETEMO-SOREZORE NO AKI-"
    PERFORMER "Cheuni"
    REM COMPOSER ""
    INDEX 00 39:02:32
    INDEX 01 39:04:32
  TRACK 10 AUDIO
    TITLE "JIDAI OKURE NO ONNA NI NARITAI"
    PERFORMER "Cheuni"
    REM COMPOSER ""
    INDEX 00 43:31:56
    INDEX 01 43:33:56
  TRACK 11 AUDIO
    TITLE "IKEGAMISEN"
    PERFORMER "Cheuni"
    REM COMPOSER ""
    INDEX 00 47:56:30
    INDEX 01 47:58:30
  TRACK 12 AUDIO
    TITLE "TASOGARE NO CONCERTO"
    PERFORMER "Cheuni"
    REM COMPOSER ""
    INDEX 00 52:18:47
    INDEX 01 52:20:47
  TRACK 13 AUDIO
    TITLE "KONO UTA WO ANATA NI"
    PERFORMER "Cheuni"
    REM COMPOSER ""
    INDEX 00 56:12:34
    INDEX 01 56:14:34
Cheuni (チェウニ), родилась 25 августа, 1965г, в Сеуле.
Настоящее имя Jeong Jae Eun (정재은)
Ее мать, (李美子) была известной певицей в Корее.
В два года Cheuni забрали от матери, увидеться с тех пор им удалось лишь раз.
С восьми лет она начала выступать как певица, продолжая свое музыкальное образование в Сеульском институте искусств. Постоянные тренировки, как оказалось, немало помогли начинающей певице найти свой голос и предопределить будущее профессиональной исполнительницы.
В Корее Jeong Jae Eun (정재은) не раз побеждала в различных конкурсах и выпустила несколько альбомов (первый из которых – «Harbor» вышел 1981 году), но сочла для себя достойным вызовом именно японскую эстраду.
Перед отъездом один из певцов дал ей совет: «Чтобы петь в Японии, необходимо знать японский язык, достаточный для чтения газет».
Cheuni отнеслась к совету со всей серьезностью - провела первый год в Японии изучая японский словарь и работая над своим произношением. Вдобавок она сбросила 10 килограмм (около 22 фунтов), чтобы быть полностью подготовленной к своему скорому дебюту.
Усердный труд себя оправдал, и в сентябре 1999 года певица выпустила свой первый сингл «Tokyo Twilight» под псевдонимом Cheuni (チェウニ). Годом позже появился и первый альбом с аналогичным названием. В том же году она получила награду дебютанта от Japan Record Label, а под конец года вышел второй сингл «Tokyo ni Yuki ga Furu».
В настоящее время Cheuni является известной исполнительницей в Японии, песни для которой поэты пишут с большим удовольствием. В отличие от многих jpop исполнителей, акцентирующих внимание на ярком имидже и хореографии, Cheuni делает ставку на чистый и сильный голос и мелодичный, запоминающийся репертуар, рассчитанный на более зрелую аудиторию. Она завоевала многочисленные награды и, похоже, имеет все шансы пойти по стопам матери.
В 2010 году получила право на постоянное проживание в Японии.
Талантливая певица лишний раз доказала, что хороший голос и тяжелая работа могут распахнуть двери даже в мир jpop / enka.
CD1 (cue+flac+log)
CD2 (cue+flac+log)
сканы обложек
 
Не забывайте говорить Спасибо. Не уходите с раздачи!   
Торрент: Зарегистрирован [09 июл 2018, 08:13] Скачать торрент
Скачать торрент
[ Размер 18.44 КБ / Просмотров 8 ]
Статус:
Проверен
 
.torrent скачан: 0 раз
Хэш: 2f9084c3147447dd651777f0ed4f72ae13b03fdd
Размер: 859.75 МБ (901 508 825 байт)
Стать Автором раздачи
 
 
Раздал: 0 байт
Скачал: 0 байт
Ратио: Inf.
Сообщения: 487468
Зарегистрирован: 17 апр 2014, 13:57


  • Похожие торренты
    Ответы
    Просмотры
    Последнее сообщение

Вернуться в Восточноазиатская поп-музыка (lossless)

Ресурс не предоставляет электронные версии произведений, а занимается лишь коллекционированием и каталогизацией ссылок, присылаемых и публикуемых на форуме нашими читателями. Если вы являетесь правообладателем какого-либо представленного материала и не желаете чтобы ссылка на него находилась в нашем каталоге, свяжитесь с нами и мы незамедлительно удалим её. Файлы для обмена на трекере предоставлены пользователями сайта, и администрация не несёт ответственности за их содержание. Просьба не заливать файлы, защищенные авторскими правами, а также файлы нелегального содержания!
cron