Ким Филби. Моя Прохоровка (Екатерина Китайцева, Андрей Куренков) [2018, Россия, Документальный, биография, HDTVRip]

 
 Статистика раздачи 
Размер: 748.48 МБ   |  Зарегистрирован: 09 июл 2018, 06:06   |   .torrent скачан: 0 раз
Сидеров: 1  [ 0 байт/сек ]     Личеров: 0  [ 0 байт/сек ]  
  

Ким Филби. Моя Прохоровка (Екатерина Китайцева, Андрей Куренков) [2018, Россия, Документальный, биография, HDTVRip]

Сообщение Nakazhu » 09 июл 2018, 09:14

Ким Филби. Моя Прохоровка
Страна: Россия
Студия: Телеканал "Россия", ВГТРК, НП "Формат"
Жанр: Документальный, биография
Год выпуска: 2018
Продолжительность: 00:45:30
Режиссёр: Екатерина Китайцева, Андрей Куренков
Описание: Ким Филби – английский аристократ, ставший советским разведчиком. Только за годы войны Ким Филби передал Москве 914 совершенно секретных документа. Филби и его друзья из знаменитой агентурной группы "Кембриджская пятерка" посылали сообщения стратегического характера. Они первыми сообщили в Москву о начале форсированных работ по созданию атомной бомбы в Англии и США, что подтолкнуло советское руководство к началу собственных работ по "атомному проекту". В годы войны информации "пятерки" придавалось особо важное значение – она тотчас попадала на стол Сталина. В 1943 году разведчики "пятерки" сыграли особую роль в подборе ключей в военной операции "Цитадель". В ответ на вопрос о том, что именно Ким Филби считает главным результатом своей работы и всей жизни, он неизменно произносил слово, которое понятно каждому жителю нашей страны: "Прохоровка". Своей главной заслугой он сам считал информацию, которую передал в Центр перед знаменитой битвой на Курской дуге, от исхода которой во многом зависел, собственно, и исход самой войны. Окончательно перебравшись в Советский Союз, Ким Филби встретил любовь всей жизни. Своими воспоминаниями о знаменитом разведчике делится его вдова Руфина Ивановна Пухова-Филби.
Доп. информация:
Автор релиза -
Источник для рипа - HDTV 1080i TS - моя запись с канала Россия-1 HD
Сэмпл: https://yadi.sk/i/wy0N3WAS3YwuFW

Рекламы нет!
Качество видео: HDTVRip
Формат видео: AVI
Видео: XviD, 720x400 (16:9), 25.000 fps, 2098 kbps, 0.291 bit/pixel
Аудио: Русский AC3, 48000 Гц, 2ch, 192 kbps
Код: Выделить всё
Общее
Полное имя                               : D:\Ким.Филби.Моя.Прохоровка.2018.HDTVRip-ylnian.avi
Формат                                   : AVI
Формат/Информация                        : Audio Video Interleave
Размер файла                             : 748 Мбайт
Продолжительность                        : 45 м. 29 с.
Общий поток                              : 2300 Кбит/сек
Программа кодирования                    : VirtualDubMod 1.5.10.3 | www.virtualdub-fr.org || (build 2550/release)
Библиотека кодирования                   : VirtualDubMod build 2550/release
Видео
Идентификатор                            : 0
Формат                                   : MPEG-4 Visual
Профиль формата                          : Advanced Simple@L5
Настройки формата                        : BVOP1
Параметр BVOP формата                    : 1
Параметр QPel формата                    : Нет
Параметр GMC формата                     : Без точки перехода
Параметр матрицы формата                 : Default (MPEG)
Идентификатор кодека                     : XVID
Идентификатор кодека/Подсказка           : XviD
Продолжительность                        : 45 м. 29 с.
Битрейт                                  : 2098 Кбит/сек
Ширина                                   : 720 пикселей
Высота                                   : 400 пикселей
Соотношение сторон                       : 16:9
Частота кадров                           : 25,000 кадров/сек
Цветовое пространство                    : YUV
Субдискретизация насыщенности            : 4:2:0
Битовая глубина                          : 8 бит
Тип развёртки                            : Прогрессивная
Метод сжатия                             : С потерями
Бит/(Пиксели*Кадры)                      : 0.291
Размер потока                            : 683 Мбайт (91%)
Библиотека кодирования                   : XviD 67
Аудио
Идентификатор                            : 1
Формат                                   : AC-3
Формат/Информация                        : Audio Coding 3
Идентификатор кодека                     : 2000
Продолжительность                        : 45 м. 29 с.
Вид битрейта                             : Постоянный
Битрейт                                  : 192 Кбит/сек
Каналы                                   : 2 канала
Расположение каналов                     : Front: L R
Частота                                  : 48,0 КГц
Частота кадров                           : 31,250 кадров/сек (1536 SPF)
Битовая глубина                          : 16 бит
Метод сжатия                             : С потерями
Размер потока                            : 62,5 Мбайт (8%)
Выравнивание                             : Разделение по промежуткам
Продолжительность промежутка             : 40  мс. (1,00 видеокадр)
Время предзагрузки промежутка            : 500  мс.
ServiceKind/String                       : Complete Main
 
Не забывайте говорить Спасибо. Не уходите с раздачи!   
Торрент: Зарегистрирован [09 июл 2018, 06:06] Для скачивания .torrent
необходима регистрация
Или скачать с помощью
MediaGet
Статус:
Проверен
 
.torrent скачан: 0 раз
Хэш: 02d71d957b329553509cbf1cdc8ac7125e4c6afa
Размер: 748.48 МБ (784 842 752 байт)
Стать Автором раздачи
 
 
Раздал: 0 байт
Скачал: 0 байт
Ратио: Inf.
Сообщения: 487468
Зарегистрирован: 17 апр 2014, 13:57


  • Похожие торренты
    Ответы
    Просмотры
    Последнее сообщение

Вернуться в Документальные фильмы и телепередачи

Ресурс не предоставляет электронные версии произведений, а занимается лишь коллекционированием и каталогизацией ссылок, присылаемых и публикуемых на форуме нашими читателями. Если вы являетесь правообладателем какого-либо представленного материала и не желаете чтобы ссылка на него находилась в нашем каталоге, свяжитесь с нами и мы незамедлительно удалим её. Файлы для обмена на трекере предоставлены пользователями сайта, и администрация не несёт ответственности за их содержание. Просьба не заливать файлы, защищенные авторскими правами, а также файлы нелегального содержания!
cron