Ультиматум Борна / The Bourne Ultimatum (Пол Гринграсс / Paul Greengrass) [2007, США, Германия, боевик, триллер, криминал, HDTVRip][Open Matte] Dub + DVO + Eng + Sub Rus + Eng

 
 Статистика раздачи 
Размер: 3.27 ГБ   |  Зарегистрирован: 04 фев 2015, 12:42   |   .torrent скачан: 0 раз
Сидеров: 1  [ 0 байт/сек ]     Личеров: 0  [ 0 байт/сек ]  
  

Ультиматум Борна / The Bourne Ultimatum (Пол Гринграсс / Paul Greengrass) [2007, США, Германия, боевик, триллер, криминал, HDTVRip][Open Matte] Dub + DVO + Eng + Sub Rus + Eng

Сообщение Nakazhu » 08 июл 2018, 23:11

Ультиматум Борна / The Bourne Ultimatum
Страна: США, Германия
Жанр: боевик, триллер, криминал
Год выпуска: 2007
Продолжительность: 01:55:23
Перевод: Профессиональный (полное дублирование) BD CEE
Перевод: Профессиональный (двухголосый закадровый) Гланц и Королева
Перевод: Авторский (одноголосый закадровый) Андрей Гаврилов
Перевод: Авторский (одноголосый закадровый) Юрий Живов
Субтитры: русские (1 канал, СЕЕ), английские
Оригинальная аудиодорожка: английский
Режиссер: Пол Гринграсс / Paul Greengrass
В ролях: Мэтт Дэймон, Джулия Стайлз, Дэвид Стрэтэйрн, Скотт Гленн, Пэдди Консидайн, Эдгар Рамирез, Альберт Финни, Джоан Аллен
Описание: Он хотел одного — исчезнуть. Вместо этого за Борном теперь охотятся люди, которые сделали его таким, какой он есть. Он потерял память и человека, которого он любил. Но его не удается сдержать даже новому поколению профессиональных убийц. У него только одна цель: вернуться к началу и узнать кем он был, Джейсон Борн.
Он мечется от Москвы к Парижу, через Мадрид и Лондон в Танжер и Нью-Йорк, пытаясь раскрыть последние загадки своего прошлого, в то время как правительственные агенты и Интерпол пытаются помешать ему восстановить всю картину до конца.
Доп. информация: Рип с канала Первый HD. Из видеоряда удалены все посторонние элементы (кроме "+16" на заставке кинокомпании), добавлены звуковые дорожки с BD, субтитры. HDTV имеет иное наполнение кадра, чем BD http://screenshotcomparison.com/comparison/113179
Сэмпл: http://multi-up.com/1203321
Качество видео: HDTVRip
Формат видео: AVI
Видео: MPEG4, XviD, 720x400 (16/9), 25.000 fps, 1 824 Kbps (0.253 bit/pixel)
Аудио: AC-3, 48.0 KHz, 6 ch, 448 Kbps, CBR - дубляж
Аудио 2: AC-3, 48.0 KHz, 6 ch, 448 Kbps, CBR - Гланц, Королева
Аудио 3: AC-3, 48.0 KHz, 6 ch, 448 Kbps, CBR - Гаврилов (отдельным файлом)
Аудио 4: AC-3, 48.0 KHz, 6 ch, 448 Kbps, CBR - Живов (отдельным файлом)
Аудио 5: AC-3, 48.0 KHz, 6 ch, 448 Kbps, CBR - английский (отдельным файлом)
Общее
Полное имя : M:\Ультиматум Борна.avi
Формат : AVI
Формат/Информация : Audio Video Interleave
Профиль формата : OpenDML
Размер файла : 2,19 Гбайт
Продолжительность : 1 ч. 55 м.
Общий поток : 2715 Кбит/сек
Название фильма : Ультиматум Борна / The Bourne Ultimatum (2007)
Программа кодирования : VirtualDubMod 1.5.10.2 (build 2540/release)
Библиотека кодирования : VirtualDubMod build 2540/release
Авторское право : miha2154
Видео
Идентификатор : 0
Формат : MPEG-4 Visual
Профиль формата : Advanced Simple@L5
Настройки формата : BVOP1 / Custom Matrix
Параметр BVOP формата : 1
Параметр QPel формата : Нет
Параметр GMC формата : Без точки перехода
Параметр матрицы формата : Выборочная
Идентификатор кодека : XVID
Идентификатор кодека/Подсказка : XviD
Продолжительность : 1 ч. 55 м.
Битрейт : 1802 Кбит/сек
Ширина : 720 пикселей
Высота : 400 пикселей
Соотношение сторон : 16:9
Частота кадров : 23,976 (24000/1001) кадра/сек
Цветовое пространство : YUV
Субдискретизация насыщенности : 4:2:0
Битовая глубина : 8 бит
Тип развёртки : Прогрессивная
Метод сжатия : С потерями
Бит/(Пиксели*Кадры) : 0.261
Размер потока : 1,45 Гбайт (66%)
Библиотека кодирования : XviD 65
Аудио #1
Идентификатор : 1
Формат : AC-3
Формат/Информация : Audio Coding 3
Идентификатор кодека : 2000
Продолжительность : 1 ч. 55 м.
Вид битрейта : Постоянный
Битрейт : 448 Кбит/сек
Каналы : 6 каналов
Расположение каналов : Front: L C R, Side: L R, LFE
Частота : 48,0 КГц
Частота кадров : 31,250 кадров/сек (1536 SPF)
Битовая глубина : 16 бит
Метод сжатия : С потерями
Размер потока : 370 Мбайт (16%)
Выравнивание : Разделение по промежуткам
Продолжительность промежутка : 42 мс. (1,00 видеокадр)
Время предзагрузки промежутка : 500 мс.
Заголовок : Профессиональный (полное дублирование)
ServiceKind/String : Complete Main
Аудио #2
Идентификатор : 2
Формат : AC-3
Формат/Информация : Audio Coding 3
Идентификатор кодека : 2000
Продолжительность : 1 ч. 55 м.
Вид битрейта : Постоянный
Битрейт : 448 Кбит/сек
Каналы : 6 каналов
Расположение каналов : Front: L C R, Side: L R, LFE
Частота : 48,0 КГц
Частота кадров : 31,250 кадров/сек (1536 SPF)
Битовая глубина : 16 бит
Метод сжатия : С потерями
Размер потока : 370 Мбайт (16%)
Выравнивание : Разделение по промежуткам
Продолжительность промежутка : 42 мс. (1,00 видеокадр)
Время предзагрузки промежутка : 500 мс.
Заголовок : Профессиональный (двухголосый, закадровый) Гланц, Королева
ServiceKind/String : Complete Main

торрент перезалит 8.07.18 - Из видеоряда удалены все посторонние элементы (кроме "+16" на заставке кинокомпании), добавлены звуковые дорожки с BD, субтитры
 
Не забывайте говорить Спасибо. Не уходите с раздачи!   
Торрент: Зарегистрирован [04 фев 2015, 12:42] Скачать торрент
Скачать торрент
[ Размер 17.3 КБ / Просмотров 0 ]
Статус:
Проверен
 
.torrent скачан: 0 раз
Хэш: d320259a7effb3e61100665efd8093d7f884553d
Размер: 3.27 ГБ (3 512 397 452 байт)
Стать Автором раздачи
 
 
Раздал: 0 байт
Скачал: 0 байт
Ратио: Inf.
Сообщения: 487468
Зарегистрирован: 17 апр 2014, 13:57


  • Похожие торренты
    Ответы
    Просмотры
    Последнее сообщение

Вернуться в Зарубежные фильмы 2006-2010 года

Ресурс не предоставляет электронные версии произведений, а занимается лишь коллекционированием и каталогизацией ссылок, присылаемых и публикуемых на форуме нашими читателями. Если вы являетесь правообладателем какого-либо представленного материала и не желаете чтобы ссылка на него находилась в нашем каталоге, свяжитесь с нами и мы незамедлительно удалим её. Файлы для обмена на трекере предоставлены пользователями сайта, и администрация не несёт ответственности за их содержание. Просьба не заливать файлы, защищенные авторскими правами, а также файлы нелегального содержания!
cron