Готовим вместе / Готуємо разом. Часть 2 [2018, кулинария, SATRip] 2 выпуска из ?

 
 Статистика раздачи 
Размер: 1.19 ГБ   |  Зарегистрирован: 01 июл 2018, 09:10   |   .torrent скачан: 0 раз
Сидеров: 1  [ 0 байт/сек ]     Личеров: 0  [ 0 байт/сек ]  
  

Готовим вместе / Готуємо разом. Часть 2 [2018, кулинария, SATRip] 2 выпуска из ?

Сообщение Nakazhu » 08 июл 2018, 23:10

Готовим вместе / Готуємо разом. Часть 2
Дата/Год выпуска: 2018
Страна: Украина
Жанр: кулинария
Продолжительность: 2x48 мин.
Перевод: Не требуется
Русские субтитры: нет
Оригинальная аудиодорожка: русский
Ведущие: Андрей Доманский и Андрей Дромов
Телеканал: IнтерОписание: Когда-то, в нашем детстве, не существовало ни кулинарных телепрограмм, ни интернета. Тогда на помощь хозяйкам приходили книги, газеты, журналы, календари... Наши мамы и бабушки вырезали из них рецепты и бережно вклеивали в тетради. Проект "Готовим вместе" - это "кулинарная книга", с помощью которой каждый может не только узнать новые рецепты и информацию о полезных свойствах продуктов, но и научиться готовить "в прямом эфире" вместе с нашим шеф-поваром и телеведущим. В результате, зрители и команда "Готовим вместе" пишут новую совместную кулинарную книгу о здоровой и полезной пище.
В проекте готовят блюда из доступных продуктов. Каждый выпуск программы раскрывает определенную тему, которая анонсируется заранее. В программе активно участвуют зрители. Они тоже готовят и выкладывают фотографии блюд на страницу "Готовим вместе" в Facebook и ВКонтакте - делятся советами и рецептами, участвуют в розыгрыше призов. И все это с юмором, ведь ведущие - одесситы: шоумен Андрей Доманский и один из лучших поваров Украины Андрей Дромов.Сэмпл: https://www.sendspace.com/file/9q8ci7
качество: SATRip
формат: AVI
Видео: Xvid 720x400 (16:9) ~1536kbps 25fps
Аудио: MP3 192kbps 48kHz 2ch
Лето в самом разгаре, и усидеть в четырех стенах просто невозможно. Поэтому самое время для пикника на свежем воздухе. И хотя в переводе с французского "пикник" означает "поклевать, перехватить что-нибудь", в действительности это далеко от истины. Ведь как раз на природе аппетит только разыгрывается! Превращать скромный пикник в королевский пир в новом выпуске «Готовим вместе» возьмется шеф-повар Андрей Дромов. А от ведущего Андрея Доманского зрители узнают историю маринада, а также о лучшем соусе для стейков по версии аргентинцев и о том, как прогнать от стола нежелательных насекомых. Не пропустите! В меню этой программы: пряный салат из печеных овощей, куриные бедра-гриль в маринаде из меда, лайма, чили и кинзы, стейк из яблочка говядины с соусом "Чимичурри".
Климат и географическое положение Армении способствует тому, что мясо стало основой кухни этой страны. А ее колорит и традиции веками передаются от бабушки внучке, от свекрови невестке. Процесс приготовления определенных армянских блюд довольно сложный и продолжительный. Иногда хозяйки тратят на это не одну неделю, а то и месяц. Но шеф-повар Андрей Дромов и ведущий Андрей Доманский припасли для телезрителей рецепты блюд, которые не требуют столь длительной подготовки. В сытную, ароматную, многогранную армянскую кухню вы точно влюбитесь с первой ложки! В меню этой программы: суп "Кололак", Тжвжик, Амич.
Код: Выделить всё
General
Complete name               : F:\Мои раздачи\Телепрограммы\Готуємо разом (2018). Частина 2\27. Страви на грилі.avi
Format                      : AVI
Format/Info                 : Audio Video Interleave
File size                   : 609 MiB
Duration                    : 49 min 4 s
Overall bit rate            : 1 736 kb/s
Video
ID                          : 0
Format                      : MPEG-4 Visual
Format profile              : Advanced Simple@L5
Format settings, BVOP       : 2
Format settings, QPel       : No
Format settings, GMC        : No warppoints
Format settings, Matrix     : Default (H.263)
Codec ID                    : XVID
Codec ID/Hint               : XviD
Duration                    : 49 min 4 s
Bit rate                    : 1 534 kb/s
Width                       : 720 pixels
Height                      : 400 pixels
Display aspect ratio        : 16:9
Frame rate                  : 25.000 FPS
Color space                 : YUV
Chroma subsampling          : 4:2:0
Bit depth                   : 8 bits
Scan type                   : Progressive
Compression mode            : Lossy
Bits/(Pixel*Frame)          : 0.213
Stream size                 : 539 MiB (88%)
Writing library             : XviD 73
Audio
ID                          : 1
Format                      : MPEG Audio
Format version              : Version 1
Format profile              : Layer 3
Mode                        : Joint stereo
Codec ID                    : 55
Codec ID/Hint               : MP3
Duration                    : 49 min 4 s
Bit rate mode               : Constant
Bit rate                    : 192 kb/s
Channel(s)                  : 2 channels
Sampling rate               : 48.0 kHz
Compression mode            : Lossy
Stream size                 : 67.4 MiB (11%)
Alignment                   : Split accross interleaves
Interleave, duration        : 40  ms (1.00 video frame)
Interleave, preload duratio : 500  ms
 
Не забывайте говорить Спасибо. Не уходите с раздачи!   
Торрент: Зарегистрирован [01 июл 2018, 09:10] Для скачивания .torrent
необходима регистрация
Или скачать с помощью
MediaGet
Статус:
Проверен
 
.torrent скачан: 0 раз
Хэш: 4179421f4252b61a5101c0f624de3ce3445bda66
Размер: 1.19 ГБ (1 273 901 774 байт)
Стать Автором раздачи
 
 
Раздал: 0 байт
Скачал: 0 байт
Ратио: Inf.
Сообщения: 487468
Зарегистрирован: 17 апр 2014, 13:57


  • Похожие торренты
    Ответы
    Просмотры
    Последнее сообщение

Вернуться в Внежанровая документалистика

Ресурс не предоставляет электронные версии произведений, а занимается лишь коллекционированием и каталогизацией ссылок, присылаемых и публикуемых на форуме нашими читателями. Если вы являетесь правообладателем какого-либо представленного материала и не желаете чтобы ссылка на него находилась в нашем каталоге, свяжитесь с нами и мы незамедлительно удалим её. Файлы для обмена на трекере предоставлены пользователями сайта, и администрация не несёт ответственности за их содержание. Просьба не заливать файлы, защищенные авторскими правами, а также файлы нелегального содержания!
cron