Заступник (Вячеслав Хотулёв) [2004, торжество Православия, TVRip]

 
 Статистика раздачи 
Размер: 624.18 МБ   |  Зарегистрирован: 08 июл 2018, 19:28   |   .torrent скачан: 0 раз
Сидеров: 1  [ 0 байт/сек ]     Личеров: 0  [ 0 байт/сек ]  
  

Заступник (Вячеслав Хотулёв) [2004, торжество Православия, TVRip]

Сообщение Nakazhu » 08 июл 2018, 22:39

Заступник
Дата/Год выпуска: 2004
Страна
: Россия
Жанр: торжество Православия
Продолжительность: 00:52:24
Перевод: Не требуется
Русские субтитры: нет
Оригинальная аудиодорожка: русский
Режиссер: Вячеслав Хотулёв
Телеканал: Культура
Описание: Художественно-публицистический фильм, посвященный святителю Тихону (в миру Василий Иванович Белавин), патриарху Московскому и Всея Руси.
Он был избран на Патриаршество 18 ноября 1917 г. На Патриаршем престоле находился семь лет, до своей кончины в 1925 г. Именно в этот период молодая власть большевиков обрушила чудовищные репрессии на Православную церковь. Фильм рассказывает о малоизвестных страницах современной российской истории.
качество: TVRip
формат: AVI
Видео: MPEG4, DivX 5, 640x480 (4:3), 25.000 fps, 1 575 Kbps (0.205 bit/pixel)
Аудио: MP3, 32.0 KHz, 2 ch, 80.0 Kbps, CBR
Код: Выделить всё
General
Complete name                            : C:\Users\User\Downloads\Заступник.avi
Format                                   : AVI
Format/Info                              : Audio Video Interleave
File size                                : 624 MiB
Duration                                 : 52mn 24s
Overall bit rate                         : 1 665 Kbps
Video
ID                                       : 0
Format                                   : MPEG-4 Visual
Format settings, BVOP                    : 1
Format settings, QPel                    : No
Format settings, GMC                     : No warppoints
Format settings, Matrix                  : Default (H.263)
Codec ID                                 : DX50
Codec ID/Hint                            : DivX 5
Duration                                 : 52mn 24s
Bit rate                                 : 1 575 Kbps
Width                                    : 640 pixels
Height                                   : 480 pixels
Display aspect ratio                     : 4:3
Frame rate                               : 25.000 fps
Color space                              : YUV
Chroma subsampling                       : 4:2:0
Bit depth                                : 8 bits
Scan type                                : Progressive
Compression mode                         : Lossy
Bits/(Pixel*Frame)                       : 0.205
Stream size                              : 591 MiB (95%)
Writing library                          : DivX 6.8.0 (UTC 2007-12-04)
Audio
ID                                       : 1
Format                                   : MPEG Audio
Format version                           : Version 1
Format profile                           : Layer 3
Mode                                     : Joint stereo
Mode extension                           : MS Stereo
Codec ID                                 : 55
Codec ID/Hint                            : MP3
Duration                                 : 52mn 24s
Bit rate mode                            : Constant
Bit rate                                 : 80.0 Kbps
Channel(s)                               : 2 channels
Sampling rate                            : 32.0 KHz
Compression mode                         : Lossy
Stream size                              : 30.0 MiB (5%)
Alignment                                : Aligned on interleaves
Interleave, duration                     : 40 ms (1.00 video frame)
Interleave, preload duration             : 504 ms
Writing library                          : LAME3.97ЄЄЄЄЄЄЄЄЄЄЄЄ
 
Не забывайте говорить Спасибо. Не уходите с раздачи!   
Торрент: Зарегистрирован [08 июл 2018, 19:28] Скачать торрент
Скачать торрент
[ Размер 12.64 КБ / Просмотров 2 ]
Статус:
Проверен
 
.torrent скачан: 0 раз
Хэш: 4aceeb635b8c7b8ecf1a2bc22f4c78b7e71ebdc6
Размер: 624.18 МБ (654 505 004 байт)
Стать Автором раздачи
 
 
Раздал: 0 байт
Скачал: 0 байт
Ратио: Inf.
Сообщения: 487468
Зарегистрирован: 17 апр 2014, 13:57


  • Похожие торренты
    Ответы
    Просмотры
    Последнее сообщение

Вернуться в Вера и религия (видео)

Ресурс не предоставляет электронные версии произведений, а занимается лишь коллекционированием и каталогизацией ссылок, присылаемых и публикуемых на форуме нашими читателями. Если вы являетесь правообладателем какого-либо представленного материала и не желаете чтобы ссылка на него находилась в нашем каталоге, свяжитесь с нами и мы незамедлительно удалим её. Файлы для обмена на трекере предоставлены пользователями сайта, и администрация не несёт ответственности за их содержание. Просьба не заливать файлы, защищенные авторскими правами, а также файлы нелегального содержания!
cron