Литургия / The Liturgy (диакон Ненад Илич) [2009, торжество Православия, DVDRip-AVC]

 
 Статистика раздачи 
Размер: 5.4 ГБ   |  Зарегистрирован: 08 июл 2018, 19:10   |   .torrent скачан: 0 раз
Сидеров: 1  [ 0 байт/сек ]     Личеров: 0  [ 0 байт/сек ]  
  

Литургия / The Liturgy (диакон Ненад Илич) [2009, торжество Православия, DVDRip-AVC]

Сообщение Nakazhu » 08 июл 2018, 22:24

Литургия / The Liturgy
Дата/Год выпуска: 2009
Страна
: Сербия
Жанр: торжество Православия
Продолжительность: 9 х ~ 00:29:00
Перевод: Не требуется
Русские субтитры: нет
Оригинальная аудиодорожка: русский
Режиссер: диакон Ненад Илич
Описание: Документальный сериал "Литургия" снят по сценарию епископа Диоклийского Иоанна (Пурича). "Литургию проще всего представить как путешествие Церкви в измерение Царства Божия", - утверждает владыка. Этот фильм призван стать подробным путеводителем, поясняющим глубинный, богословский смысл такого путешествия. Иллюстрации к нему создала команда профессионалов сербского телевидения и кинематографа. В течение девяти получасовых серий на экране все этапы Литургии, совершаемой не в одном-единственном храме, а в многочисленных церквях и монастырях Сербии и Черногории. Впечатляющий видеоряд насыщен зрелищными кадрами, историческими реконструкциями и спецэффектами. Когда древние иконописные лики трансформируются в изображения современных христиан, а отдельные моменты богослужения превращаются в сцены из Священного Писания, возникает яркое ощущение единого, вечного пространства Литургии, объединяющего верующих всех времен и народов.
качество: DVDRip-AVC
формат: MKV
Видео: AVC, 700x576 (16:9), 25.000 fps, 2 623 Kbps (0.260 bit/pixel)
Аудио: AC-3, 48.0 KHz, 2 ch, 192 Kbps, CBR (Russian)
1. Важнее жизни. Что такое Божественная Литургия?
2. Время сотворити Господеви. Проскомидия
3. Путь в Царство Божие. Начало Литургии Слова
4. Ангелы и люди объединяются. Малый Вход и Евангелие
5. Всякое ныне отложим попечение. Великий Вход
6. Исполним молитву нашу Господеви. Продолжение Литургии верных
7. Горе имеем сердца. Анафора
8. Сподоби нас. Подготовка к Причастию
9. Тело и Кровь Христовы. Причастие
Код: Выделить всё
General
Unique ID                                : 203682101209700024184390415952280951511 (0x993BBEEBCD3771F7B8BD3827893A1AD7)
Complete name                            : C:\Users\User\Downloads\Литургия\1. Важнее жизни. Что такое Божественная Литургия.mkv
Format                                   : Matroska
Format version                           : Version 2
File size                                : 552 MiB
Duration                                 : 26mn 53s
Overall bit rate                         : 2 873 Kbps
Encoded date                             : UTC 2017-07-07 18:17:03
Writing application                      : mkvmerge v7.8.0 ('River Man') 32bit built on Apr  3 2015 12:11:22
Writing library                          : libebml v1.3.1 + libmatroska v1.4.2
Video
ID                                       : 1
Format                                   : AVC
Format/Info                              : Advanced Video Codec
Format profile                           : High@L4.1
Format settings, CABAC                   : Yes
Format settings, ReFrames                : 12 frames
Codec ID                                 : V_MPEG4/ISO/AVC
Duration                                 : 26mn 53s
Bit rate                                 : 2 623 Kbps
Width                                    : 700 pixels
Height                                   : 576 pixels
Display aspect ratio                     : 1.727
Original display aspect ratio            : 1.728
Frame rate mode                          : Constant
Frame rate                               : 25.000 fps
Color space                              : YUV
Chroma subsampling                       : 4:2:0
Bit depth                                : 8 bits
Scan type                                : Progressive
Bits/(Pixel*Frame)                       : 0.260
Stream size                              : 505 MiB (91%)
Writing library                          : x264 core 148 r2744kMod b97ae06
Encoding settings                        : cabac=1 / ref=12 / deblock=1:-2:-2 / analyse=0x3:0x133 / me=umh / subme=10 / psy=1 / fade_compensate=0.00 / psy_rd=1.05:0.10 / mixed_ref=1 / me_range=32 / chroma_me=1 / trellis=2 / 8x8dct=1 / cqm=0 / deadzone=21,11 / fast_pskip=1 / chroma_qp_offset=-3 / threads=6 / lookahead_threads=1 / sliced_threads=0 / nr=0 / decimate=1 / interlaced=0 / bluray_compat=0 / constrained_intra=0 / bframes=9 / b_pyramid=2 / b_adapt=2 / b_bias=0 / direct=1 / weightb=1 / open_gop=0 / weightp=2 / keyint=250 / keyint_min=25 / scenecut=40 / intra_refresh=0 / rc=crf / mbtree=0 / crf=19.8000 / qcomp=0.63 / qpmin=0 / qpmax=39 / qpstep=4 / ip_ratio=1.25 / pb_ratio=1.30 / aq=1:1.00
Language                                 : Russian
Default                                  : Yes
Forced                                   : No
Color primaries                          : BT.601 PAL
Transfer characteristics                 : BT.470 System B, BT.470 System G
Matrix coefficients                      : BT.601
Audio
ID                                       : 2
Format                                   : AC-3
Format/Info                              : Audio Coding 3
Mode extension                           : CM (complete main)
Format settings, Endianness              : Big
Codec ID                                 : A_AC3
Duration                                 : 26mn 53s
Bit rate mode                            : Constant
Bit rate                                 : 192 Kbps
Channel(s)                               : 2 channels
Channel positions                        : Front: L R
Sampling rate                            : 48.0 KHz
Bit depth                                : 16 bits
Compression mode                         : Lossy
Stream size                              : 36.9 MiB (7%)
Language                                 : Russian
Default                                  : Yes
Forced                                   : No
 
Не забывайте говорить Спасибо. Не уходите с раздачи!   
Торрент: Зарегистрирован [08 июл 2018, 19:10] Для скачивания .torrent
необходима регистрация
Или скачать с помощью
MediaGet
Статус:
Проверен
 
.torrent скачан: 0 раз
Хэш: 309b6354fd7b882dc4a10f201110d6eb254752f1
Размер: 5.4 ГБ (5 796 281 427 байт)
Стать Автором раздачи
 
 
Раздал: 0 байт
Скачал: 0 байт
Ратио: Inf.
Сообщения: 487468
Зарегистрирован: 17 апр 2014, 13:57


  • Похожие торренты
    Ответы
    Просмотры
    Последнее сообщение

Вернуться в Вера и религия (видео)

Ресурс не предоставляет электронные версии произведений, а занимается лишь коллекционированием и каталогизацией ссылок, присылаемых и публикуемых на форуме нашими читателями. Если вы являетесь правообладателем какого-либо представленного материала и не желаете чтобы ссылка на него находилась в нашем каталоге, свяжитесь с нами и мы незамедлительно удалим её. Файлы для обмена на трекере предоставлены пользователями сайта, и администрация не несёт ответственности за их содержание. Просьба не заливать файлы, защищенные авторскими правами, а также файлы нелегального содержания!
cron