Монастырская травница (Вячеслав Жестовский) [2008, торжество Православия, SATRip]

 
 Статистика раздачи 
Размер: 389.93 МБ   |  Зарегистрирован: 08 июл 2018, 18:41   |   .torrent скачан: 0 раз
Сидеров: 1  [ 0 байт/сек ]     Личеров: 0  [ 0 байт/сек ]  
  

Монастырская травница (Вячеслав Жестовский) [2008, торжество Православия, SATRip]

Сообщение Nakazhu » 08 июл 2018, 21:53

Монастырская травница
Дата/Год выпуска: 2008
Страна
: Россия
Жанр: торжество Православия
Продолжительность: 00:30:18
Перевод: Не требуется
Русские субтитры: нет
Оригинальная аудиодорожка: русский
Режиссер: Вячеслав Жестовский
Телеканал: СПАС
Описание: Вот уже более сорока лет собиратель трав в лесах, Елена Федоровна Зайцева лечит людей, передает свои знания священникам и монахам, поддерживает тесную связь с православными храмами и монастырями. 85-летняя травница хранит старинные секреты сбора лекарственных трав и сохранения их целебной силы. Ей ведомы секреты лечения болезней казалось бы, обычными травами: зверобой, сныть, чистотел, мокрица, лопух и тысячи других...
качество: SATRip
формат: AVI
Видео: MPEG4, XviD, 720x576 (4:3), 25.000 fps, 1 597 Kbps (0.154 bit/pixel)
Аудио: AC-3, 48.0 KHz, 2 ch, 192 Kbps, CBR
Код: Выделить всё
General
Complete name                            : G:\Монастырская травница.avi
Format                                   : AVI
Format/Info                              : Audio Video Interleave
File size                                : 390 MiB
Duration                                 : 30mn 18s
Overall bit rate                         : 1 798 Kbps
Video
ID                                       : 0
Format                                   : MPEG-4 Visual
Format profile                           : Advanced Simple@L5
Format settings, BVOP                    : 2
Format settings, QPel                    : No
Format settings, GMC                     : No warppoints
Format settings, Matrix                  : Default (MPEG)
Codec ID                                 : XVID
Codec ID/Hint                            : XviD
Duration                                 : 30mn 18s
Bit rate                                 : 1 597 Kbps
Width                                    : 720 pixels
Height                                   : 576 pixels
Display aspect ratio                     : 4:3
Frame rate                               : 25.000 fps
Standard                                 : PAL
Color space                              : YUV
Chroma subsampling                       : 4:2:0
Bit depth                                : 8 bits
Scan type                                : Progressive
Compression mode                         : Lossy
Bits/(Pixel*Frame)                       : 0.154
Stream size                              : 346 MiB (89%)
Writing library                          : XviD 64
Audio
ID                                       : 1
Format                                   : AC-3
Format/Info                              : Audio Coding 3
Mode extension                           : CM (complete main)
Format settings, Endianness              : Big
Codec ID                                 : 2000
Duration                                 : 30mn 18s
Bit rate mode                            : Constant
Bit rate                                 : 192 Kbps
Channel(s)                               : 2 channels
Channel positions                        : Front: L R
Sampling rate                            : 48.0 KHz
Bit depth                                : 16 bits
Compression mode                         : Lossy
Stream size                              : 41.6 MiB (11%)
Alignment                                : Aligned on interleaves
Interleave, duration                     : 40 ms (1.00 video frame)
Interleave, preload duration             : 512 ms
 
Не забывайте говорить Спасибо. Не уходите с раздачи!   
Торрент: Зарегистрирован [08 июл 2018, 18:41] Скачать торрент
Скачать торрент
[ Размер 15.69 КБ / Просмотров 0 ]
Статус:
Проверен
 
.torrent скачан: 0 раз
Хэш: 3dbb7cdae5253bc23917783aa099b9ff9c3e8a60
Размер: 389.93 МБ (408 873 524 байт)
Стать Автором раздачи
 
 
Раздал: 0 байт
Скачал: 0 байт
Ратио: Inf.
Сообщения: 487468
Зарегистрирован: 17 апр 2014, 13:57


  • Похожие торренты
    Ответы
    Просмотры
    Последнее сообщение

Вернуться в Вера и религия (видео)

Ресурс не предоставляет электронные версии произведений, а занимается лишь коллекционированием и каталогизацией ссылок, присылаемых и публикуемых на форуме нашими читателями. Если вы являетесь правообладателем какого-либо представленного материала и не желаете чтобы ссылка на него находилась в нашем каталоге, свяжитесь с нами и мы незамедлительно удалим её. Файлы для обмена на трекере предоставлены пользователями сайта, и администрация не несёт ответственности за их содержание. Просьба не заливать файлы, защищенные авторскими правами, а также файлы нелегального содержания!
cron