[VIDEO] Несчастный случай / Accident Man (Джесси Джонсон / Jesse Johnson) [2018, боевик, триллер, криминал, BDRip] [MP4, 480x] MVO Blu-ray EUR

 
 Статистика раздачи 
Размер: 480.26 МБ   |  Зарегистрирован: 05 июл 2018, 14:14   |   .torrent скачан: 0 раз
Сидеров: 1  [ 0 байт/сек ]     Личеров: 0  [ 0 байт/сек ]  
  

[VIDEO] Несчастный случай / Accident Man (Джесси Джонсон / Jesse Johnson) [2018, боевик, триллер, криминал, BDRip] [MP4, 480x] MVO Blu-ray EUR

Сообщение Nakazhu » 08 июл 2018, 19:18



Несчастный случай / Accident Man


Год выпуска: 2018
Страна: Великобритания
Жанр: боевик, триллер, криминал
Продолжительность: 01:45:29
Перевод: русский Профессиональный (многоголосый, закадровый) Blu-ray EUR
Субтитры: нет
Режиссер: Джесси Джонсон / Jesse Johnson
В ролях: Скотт Эдкинс, Рэй Стивенсон, Эшли Грин, Дэвид Пэймер, Майкл Джей Уайт, Рэй Парк, Эми Джонстон, Перри Бенсон, Ник Моран, Росс О'Хеннесси и другие .
Описание: Майк Фэллон известен тем, что превращает все свои убийства в несчастный случай. Но его отношение к делу полностью меняется, когда умирает его бывшая девушка .
Релиз группы
Качество: BDRip / рип с Blu-ray disc 1080p [EUR]
Формат: MP4
Видео кодек: XviD
Аудио кодек: AAC
Видео: 480x200 AR:2.40 505 kbps 23.976 fps
Аудио: [Russian] 2ch 48 kHz 128 kbps - [MVO] Профессиональный (многоголосый, закадровый) Blu-ray EUR
Код: Выделить всё
General
Complete name                            : K:\Torrents\Accident Man.2018.BDRip.XviD.480x.rip by Frost O.S.mp4
Format                                   : MPEG-4
Format profile                           : 3GPP Media Release 5
Codec ID                                 : 3gp5 (isom/3gp5/3gp4/mp41/mp42)
File size                                : 480 MiB
Duration                                 : 1 h 45 min
Overall bit rate mode                    : Variable
Overall bit rate                         : 637 kb/s
Encoded date                             : UTC 2018-07-08 15:46:44
Tagged date                              : UTC 2018-07-08 15:46:44
Video
ID                                       : 1
Format                                   : MPEG-4 Visual
Format profile                           : Advanced Simple@L5
Format settings                          : BVOP / Custom Matrix
Format settings, BVOP                    : Yes
Format settings, QPel                    : No
Format settings, GMC                     : No warppoints
Format settings, Matrix                  : Custom
Codec ID                                 : mp4v-20
Duration                                 : 1 h 45 min
Bit rate mode                            : Variable
Bit rate                                 : 505 kb/s
Maximum bit rate                         : 3 452 kb/s
Width                                    : 480 pixels
Height                                   : 200 pixels
Display aspect ratio                     : 2.40:1
Frame rate mode                          : Constant
Frame rate                               : 23.976 (24000/1001) FPS
Color space                              : YUV
Chroma subsampling                       : 4:2:0
Bit depth                                : 8 bits
Scan type                                : Progressive
Compression mode                         : Lossy
Bits/(Pixel*Frame)                       : 0.219
Stream size                              : 381 MiB (79%)
Title                                    : avi@GPAC0.5.2-DEV-rev248-g39d5978-master
Writing library                          : XviD 1.2.1 (UTC 2008-12-04)
Encoded date                             : UTC 2018-07-05 17:53:39
Tagged date                              : UTC 2018-07-08 15:46:47
Audio
ID                                       : 2
Format                                   : AAC
Format/Info                              : Advanced Audio Codec
Format profile                           : LC
Codec ID                                 : mp4a-40-2
Duration                                 : 1 h 45 min
Bit rate mode                            : Variable
Bit rate                                 : 128 kb/s
Maximum bit rate                         : 135 kb/s
Channel(s)                               : 2 channels
Channel positions                        : Front: L R
Sampling rate                            : 48.0 kHz
Frame rate                               : 46.875 FPS (1024 SPF)
Compression mode                         : Lossy
Stream size                              : 96.6 MiB (20%)
Title                                    : Russian / MVO, Blu-ray EUR
Encoded date                             : UTC 2018-07-02 18:46:44
Tagged date                              : UTC 2018-07-08 15:46:47


 
Не забывайте говорить Спасибо. Не уходите с раздачи!   
Торрент: Зарегистрирован [05 июл 2018, 14:14] Скачать торрент
Скачать торрент
[ Размер 19.24 КБ / Просмотров 4 ]
Статус:
Проверен
 
.torrent скачан: 0 раз
Хэш: dec8f0393b2b9290e112263c4b311d00f17996fe
Размер: 480.26 МБ (503 592 193 байт)
Стать Автором раздачи
 
 
Раздал: 0 байт
Скачал: 0 байт
Ратио: Inf.
Сообщения: 487468
Зарегистрирован: 17 апр 2014, 13:57


  • Похожие торренты
    Ответы
    Просмотры
    Последнее сообщение

Вернуться в Видео для смартфонов и КПК

Ресурс не предоставляет электронные версии произведений, а занимается лишь коллекционированием и каталогизацией ссылок, присылаемых и публикуемых на форуме нашими читателями. Если вы являетесь правообладателем какого-либо представленного материала и не желаете чтобы ссылка на него находилась в нашем каталоге, свяжитесь с нами и мы незамедлительно удалим её. Файлы для обмена на трекере предоставлены пользователями сайта, и администрация не несёт ответственности за их содержание. Просьба не заливать файлы, защищенные авторскими правами, а также файлы нелегального содержания!
cron