[VIDEO] Несчастный случай / Accident Man (Джесси Джонсон / Jesse Johnson) [2018, боевик, триллер, криминал, BDRip] [MP4, 960x] MVO Blu-ray EUR, Original, Sub (rus, eng)

 
 Статистика раздачи 
Размер: 1.08 ГБ   |  Зарегистрирован: 05 июл 2018, 14:13   |   .torrent скачан: 0 раз
Сидеров: 1  [ 0 байт/сек ]     Личеров: 0  [ 0 байт/сек ]  
  

[VIDEO] Несчастный случай / Accident Man (Джесси Джонсон / Jesse Johnson) [2018, боевик, триллер, криминал, BDRip] [MP4, 960x] MVO Blu-ray EUR, Original, Sub (rus, eng)

Сообщение Nakazhu » 08 июл 2018, 19:18



Несчастный случай / Accident Man


Год выпуска: 2018
Страна: Великобритания
Жанр: боевик, триллер, криминал
Продолжительность: 01:45:29
Перевод: русский Профессиональный (многоголосый, закадровый) Blu-ray EUR
Оригинальная дорожка: Есть
Субтитры: русские (форсированные), (полные), английские (полные), (SDH)
Режиссер: Джесси Джонсон / Jesse Johnson
В ролях: Скотт Эдкинс, Рэй Стивенсон, Эшли Грин, Дэвид Пэймер, Майкл Джей Уайт, Рэй Парк, Эми Джонстон, Перри Бенсон, Ник Моран, Росс О'Хеннесси и другие .
Описание: Майк Фэллон известен тем, что превращает все свои убийства в несчастный случай. Но его отношение к делу полностью меняется, когда умирает его бывшая девушка .
Релиз группы
Качество: BDRip / рип с Blu-ray disc 1080p [EUR]
Формат: MP4
Видео кодек: H.264
Аудио кодек: AAC
Видео: 960x402 AR:2.39 1200 kbps 23.976 fps
Аудио №1: [Russian] 2ch 48 kHz 128 kbps - [MVO] Профессиональный (многоголосый, закадровый) Blu-ray EUR
Аудио №2: [English] 2ch 48 kHz 128 kbps - Original
avs [info]: 960x402p 1:1 @ 24000/1001 fps (cfr)
x264 [info]: using SAR=1/1
x264 [info]: using cpu capabilities: MMX2 SSE2Fast SSSE3 SSE4.2 AVX FMA3 BMI2 AVX2
x264 [info]: profile High, level 4.1
x264 [info]: frame I:1393 Avg QP:15.29 size: 42962
x264 [info]: frame P:35750 Avg QP:19.78 size: 12925
x264 [info]: frame B:114609 Avg QP:22.11 size: 3730
x264 [info]: consecutive B-frames: 3.7% 4.5% 9.7% 20.0% 17.9% 28.3% 6.1% 4.7% 1.9% 1.7% 0.7% 0.8%
x264 [info]: mb I I16..4: 7.4% 71.1% 21.5%
x264 [info]: mb P I16..4: 1.1% 8.1% 1.8% P16..4: 35.8% 39.0% 9.1% 0.0% 0.0% skip: 5.0%
x264 [info]: mb B I16..4: 0.1% 0.8% 0.2% B16..8: 38.1% 16.7% 1.9% direct: 2.4% skip:39.7% L0:44.2% L1:47.5% BI: 8.3%
x264 [info]: 8x8 transform intra:71.7% inter:64.5%
x264 [info]: direct mvs spatial:97.6% temporal:2.4%
x264 [info]: coded y,uvDC,uvAC intra: 79.0% 77.0% 48.7% inter: 14.8% 11.6% 4.1%
x264 [info]: i16 v,h,dc,p: 25% 11% 3% 61%
x264 [info]: i8 v,h,dc,ddl,ddr,vr,hd,vl,hu: 14% 6% 5% 10% 14% 13% 14% 12% 12%
x264 [info]: i4 v,h,dc,ddl,ddr,vr,hd,vl,hu: 24% 6% 5% 9% 13% 12% 12% 10% 10%
x264 [info]: i8c dc,h,v,p: 30% 28% 24% 18%
x264 [info]: Weighted P-Frames: Y:11.1% UV:7.0%
x264 [info]: ref P L0: 51.6% 9.1% 16.8% 6.6% 4.9% 3.7% 3.1% 1.8% 1.8% 0.3% 0.0%
x264 [info]: ref B L0: 75.3% 11.2% 6.0% 2.8% 2.0% 1.5% 0.9% 0.3%
x264 [info]: ref B L1: 93.9% 6.1%
x264 [info]: kb/s:1200.05
encoded 151752 frames, 17.94 fps, 1200.05 kb/s
Код: Выделить всё
General
Complete name                            : K:\Torrents\Accident Man.2018.BDRip.x264.960x.rip by Frost O.S.mp4
Format                                   : MPEG-4
Format profile                           : 3GPP Release 6 General
Codec ID                                 : 3gg6 (isom/3gg6/mp42)
File size                                : 1.08 GiB
Duration                                 : 1 h 45 min
Overall bit rate mode                    : Variable
Overall bit rate                         : 1 462 kb/s
Encoded date                             : UTC 2018-07-08 15:43:26
Tagged date                              : UTC 2018-07-08 15:43:26
Video
ID                                       : 1
Format                                   : AVC
Format/Info                              : Advanced Video Codec
Format profile                           : High@L4.1
Format settings                          : CABAC / 9 Ref Frames
Format settings, CABAC                   : Yes
Format settings, RefFrames               : 9 frames
Codec ID                                 : avc1
Codec ID/Info                            : Advanced Video Coding
Duration                                 : 1 h 45 min
Bit rate                                 : 1 200 kb/s
Maximum bit rate                         : 4 709 kb/s
Width                                    : 960 pixels
Height                                   : 402 pixels
Display aspect ratio                     : 2.40:1
Frame rate mode                          : Constant
Frame rate                               : 23.976 (24000/1001) FPS
Color space                              : YUV
Chroma subsampling                       : 4:2:0
Bit depth                                : 8 bits
Scan type                                : Progressive
Bits/(Pixel*Frame)                       : 0.130
Stream size                              : 905 MiB (82%)
Writing library                          : x264 core 152 r2851 ba24899
Encoding settings                        : cabac=1 / ref=9 / deblock=1:-2:-2 / analyse=0x3:0x113 / me=umh / subme=11 / psy=1 / psy_rd=1.00:0.00 / mixed_ref=1 / me_range=32 / chroma_me=1 / trellis=2 / 8x8dct=1 / cqm=0 / deadzone=21,11 / fast_pskip=0 / chroma_qp_offset=-2 / threads=6 / lookahead_threads=1 / sliced_threads=0 / nr=0 / decimate=0 / interlaced=0 / bluray_compat=0 / constrained_intra=0 / bframes=11 / b_pyramid=2 / b_adapt=2 / b_bias=0 / direct=3 / weightb=1 / open_gop=0 / weightp=2 / keyint=250 / keyint_min=23 / scenecut=40 / intra_refresh=0 / rc=2pass / mbtree=0 / bitrate=1200 / ratetol=1.0 / qcomp=0.70 / qpmin=0 / qpmax=69 / qpstep=4 / cplxblur=20.0 / qblur=0.5 / ip_ratio=1.40 / pb_ratio=1.30 / aq=1:0.80
Encoded date                             : UTC 2018-07-06 15:29:33
Tagged date                              : UTC 2018-07-08 15:43:35
Color range                              : Limited
Color primaries                          : BT.709
Transfer characteristics                 : BT.709
Matrix coefficients                      : BT.709
Audio #1
ID                                       : 2
Format                                   : AAC
Format/Info                              : Advanced Audio Codec
Format profile                           : LC
Codec ID                                 : mp4a-40-2
Duration                                 : 1 h 45 min
Bit rate mode                            : Variable
Bit rate                                 : 128 kb/s
Maximum bit rate                         : 135 kb/s
Channel(s)                               : 2 channels
Channel positions                        : Front: L R
Sampling rate                            : 48.0 kHz
Frame rate                               : 46.875 FPS (1024 SPF)
Compression mode                         : Lossy
Stream size                              : 96.6 MiB (9%)
Title                                    : Russian / MVO, Blu-ray EUR
Encoded date                             : UTC 2018-07-02 18:46:44
Tagged date                              : UTC 2018-07-08 15:43:35
Audio #2
ID                                       : 3
Format                                   : AAC
Format/Info                              : Advanced Audio Codec
Format profile                           : LC
Codec ID                                 : mp4a-40-2
Duration                                 : 1 h 45 min
Bit rate mode                            : Variable
Bit rate                                 : 128 kb/s
Maximum bit rate                         : 133 kb/s
Channel(s)                               : 2 channels
Channel positions                        : Front: L R
Sampling rate                            : 48.0 kHz
Frame rate                               : 46.875 FPS (1024 SPF)
Compression mode                         : Lossy
Stream size                              : 96.6 MiB (9%)
Title                                    : English / Original
Encoded date                             : UTC 2018-07-02 18:41:50
Tagged date                              : UTC 2018-07-08 15:43:35
Text #1
ID                                       : 4
Format                                   : Timed Text
Codec ID                                 : tx3g
Duration                                 : 1 h 26 min
Bit rate mode                            : Variable
Bit rate                                 : 1 b/s
Stream size                              : 435 Bytes (0%)
Title                                    : Russian / Forced
Forced                                   : No
Encoded date                             : UTC 2018-07-08 15:43:35
Tagged date                              : UTC 2018-07-08 15:43:35
Text #2
ID                                       : 5
Format                                   : Timed Text
Codec ID                                 : tx3g
Duration                                 : 1 h 41 min
Bit rate mode                            : Variable
Bit rate                                 : 96 b/s
Stream size                              : 71.4 KiB (0%)
Title                                    : Russian / Full
Forced                                   : No
Encoded date                             : UTC 2018-07-08 15:43:35
Tagged date                              : UTC 2018-07-08 15:43:35
Text #3
ID                                       : 6
Format                                   : Timed Text
Codec ID                                 : tx3g
Duration                                 : 1 h 41 min
Bit rate mode                            : Variable
Bit rate                                 : 85 b/s
Stream size                              : 63.6 KiB (0%)
Title                                    : English / Full
Forced                                   : No
Encoded date                             : UTC 2018-07-08 15:43:35
Tagged date                              : UTC 2018-07-08 15:43:35
Text #4
ID                                       : 7
Format                                   : Timed Text
Codec ID                                 : tx3g
Duration                                 : 1 h 43 min
Bit rate mode                            : Variable
Bit rate                                 : 91 b/s
Stream size                              : 68.8 KiB (0%)
Title                                    : English / SDH
Forced                                   : No
Encoded date                             : UTC 2018-07-08 15:43:35
Tagged date                              : UTC 2018-07-08 15:43:35


 
Не забывайте говорить Спасибо. Не уходите с раздачи!   
Торрент: Зарегистрирован [05 июл 2018, 14:13] Для скачивания .torrent
необходима регистрация
Или скачать с помощью
MediaGet
Статус:
Проверен
 
.torrent скачан: 0 раз
Хэш: e75f15b3a0d84c8fbaced1c4552340c6081f1c7a
Размер: 1.08 ГБ (1 156 701 931 байт)
Стать Автором раздачи
 
 
Раздал: 0 байт
Скачал: 0 байт
Ратио: Inf.
Сообщения: 487468
Зарегистрирован: 17 апр 2014, 13:57


  • Похожие торренты
    Ответы
    Просмотры
    Последнее сообщение

Вернуться в Видео для смартфонов и КПК

Ресурс не предоставляет электронные версии произведений, а занимается лишь коллекционированием и каталогизацией ссылок, присылаемых и публикуемых на форуме нашими читателями. Если вы являетесь правообладателем какого-либо представленного материала и не желаете чтобы ссылка на него находилась в нашем каталоге, свяжитесь с нами и мы незамедлительно удалим её. Файлы для обмена на трекере предоставлены пользователями сайта, и администрация не несёт ответственности за их содержание. Просьба не заливать файлы, защищенные авторскими правами, а также файлы нелегального содержания!
cron