Взгляд [1986, История, документальный, DVB]

 
 Статистика раздачи 
Размер: 903.93 МБ   |  Зарегистрирован: 08 июл 2018, 13:12   |   .torrent скачан: 0 раз
Сидеров: 1  [ 0 байт/сек ]     Личеров: 0  [ 0 байт/сек ]  
  

Взгляд [1986, История, документальный, DVB]

Сообщение Nakazhu » 08 июл 2018, 16:27

Взгляд
Дата/Год выпуска: 1986
Страна: СССР
Жанр: История, документальный
Продолжительность: 00:28:04
Перевод: Не требуется
Русские субтитры: нет
Оригинальная аудиодорожка: нет
Режиссер: не найден
Телеканал: Ностальгия
Описание: Петербургские «Фотографии» размещались под самыми крышами поближе к свету. Теперь же осталось только одно такое фотозаведение на весь город – это «Фотографiя К.К. Булла». Карл Карлович Булла – немец по происхождению, почетный гражданин Санкт Петербурга, фотограф Министерства Императорского двора и Управления Санкт-Петербургского градоначальника, фотограф Его Величества короля Италии… Он был одним из первых фотографов, использовавших метод съемки «не дожидаясь, когда все приготовятся». В 1886 году К.К. Булла подает прошение в министерство внутренних дел о выдаче ему свидетельства на право производства всякого рода фотографических работ вне дома, как-то: на улицах, квартирах и в местах ближайших окрестностей Петербурга. Получив разрешение, он не пропускает ни одно городское событие, будь то спуск со стапелей Адмиралтейского завода крейсера I ранга «Аврора», столетие лейб-гвардии егерского полка или приезд в столицу иностранных гостей, например, Макса Линдера. На протяжении нескольких поколений мастерство переходило от отца к сыну. Вся Россия следила за трагедией народа по снимкам русско-японской войны, сделанным уже Виктором Буллой – фотокорреспондентом журнала «Нива». Потом вместе в братом Александром он фотографировал Ленина. Исторический документ – выданная в 1935 году справка гласит, что «фотографом Булла В.К. передано Государственному архиву Октябрьской революции и социалистического строительства Ленинградской области 132 683 негатива снимков, отражающих периоды первой мировой войны, подготовки и проведения Октябрьской революции, гражданской войны и мирного строительства... Принятые снимки имеют большую историческую и художественную ценность». Через три года Виктор Карлович Булла был арестован и назван врагом народа. Его постигла та же участь, что и тысяч политических заключенных в нашей стране... Некоторые из снимков известной фотографической династии сегодня составили экспозицию частного музея, открытого в стенах реконструированного фотосалона имени Карла Буллы на Невском проспекте.
Доп. информация: © «Лентелефильм»
За запись спасибо prima30071971
Сэмпл: http://sendfile.su/1429628
качество: DVB
формат: MPG
Видео: MPEG Video 720x576 4 157 kb/s 25.000 FPS (4:3) PAL
Аудио: AC-3 256 kb/s 2 ch 48.0 kHz
Код: Выделить всё
General
Complete name               : C:\Users\pk\Desktop\Взгляд (1986).mpg
Format                      : MPEG-PS
File size                   : 904 MiB
Duration                    : 28 min 4 s
Overall bit rate mode       : Variable
Overall bit rate            : 4 502 kb/s
Video
ID                          : 224 (0xE0)
Format                      : MPEG Video
Format version              : Version 2
Format profile              : Main@Main
Format settings             : CustomMatrix / BVOP
Format settings, BVOP       : Yes
Format settings, Matrix     : Custom
Format settings, GOP        : Variable
Format settings, picture st : Frame
Duration                    : 28 min 4 s
Bit rate mode               : Variable
Bit rate                    : 4 157 kb/s
Maximum bit rate            : 9 400 kb/s
Width                       : 720 pixels
Height                      : 576 pixels
Display aspect ratio        : 4:3
Frame rate                  : 25.000 FPS
Standard                    : PAL
Color space                 : YUV
Chroma subsampling          : 4:2:0
Bit depth                   : 8 bits
Scan type                   : Interlaced
Scan order                  : Top Field First
Compression mode            : Lossy
Bits/(Pixel*Frame)          : 0.401
Time code of first frame    : 00:00:00:00
Time code source            : Group of pictures header
Stream size                 : 835 MiB (92%)
Color primaries             : BT.601 PAL
Transfer characteristics    : BT.470 System B, BT.470 System G
Matrix coefficients         : BT.470 System B, BT.470 System G
Audio
ID                          : 189 (0xBD)-128 (0x80)
Format                      : AC-3
Format/Info                 : Audio Coding 3
Format settings, Endianness : Big
Muxing mode                 : DVD-Video
Duration                    : 28 min 3 s
Bit rate mode               : Constant
Bit rate                    : 256 kb/s
Channel(s)                  : 2 channels
Channel positions           : Front: L R
Sampling rate               : 48.0 kHz
Frame rate                  : 31.250 FPS (1536 SPF)
Bit depth                   : 16 bits
Compression mode            : Lossy
Delay relative to video     : 16 ms
Stream size                 : 51.4 MiB (6%)
Service kind                : Complete Main
 
Не забывайте говорить Спасибо. Не уходите с раздачи!   
Торрент: Зарегистрирован [08 июл 2018, 13:12] Скачать торрент
Скачать торрент
[ Размер 18.09 КБ / Просмотров 1 ]
Статус:
Проверен
 
.torrent скачан: 0 раз
Хэш: 11c5802ab413bac53dea6bc83ca246ca28651aa2
Размер: 903.93 МБ (947 836 928 байт)
Стать Автором раздачи
 
 
Раздал: 0 байт
Скачал: 0 байт
Ратио: Inf.
Сообщения: 487468
Зарегистрирован: 17 апр 2014, 13:57


  • Похожие торренты
    Ответы
    Просмотры
    Последнее сообщение

Вернуться в Документальные фильмы и телепередачи

Ресурс не предоставляет электронные версии произведений, а занимается лишь коллекционированием и каталогизацией ссылок, присылаемых и публикуемых на форуме нашими читателями. Если вы являетесь правообладателем какого-либо представленного материала и не желаете чтобы ссылка на него находилась в нашем каталоге, свяжитесь с нами и мы незамедлительно удалим её. Файлы для обмена на трекере предоставлены пользователями сайта, и администрация не несёт ответственности за их содержание. Просьба не заливать файлы, защищенные авторскими правами, а также файлы нелегального содержания!
cron