Сайт девочек волшебниц / Mahou Shoujo Site [12 из 12] (2018) HDTVRip 720p | Persona99

 
 Статистика раздачи 
Размер: 5.11 ГБ   |  Зарегистрирован: 08 июл 2018, 14:50   |   .torrent скачан: 0 раз
Сидеров: 1  [ 0 байт/сек ]     Личеров: 0  [ 0 байт/сек ]  
  

Сайт девочек волшебниц / Mahou Shoujo Site [12 из 12] (2018) HDTVRip 720p | Persona99

Сообщение explosiveone » 08 июл 2018, 15:29

Информация о фильме
Название: Сайт волшебниц
Оригинальное название: Magical Girl Site / Mahou Shoujo Site
Год выхода: 2018
Жанр: триллер, мистика, драма
Режиссер: Мацубаяси Тадахито

Описание:
Наверное, каждый, кто когда-либо сталкивался с издевательствами, втайне мечтал отомстить своим обидчикам и причинить им такую же боль, а может даже посильнее. А что делать четырнадцатилетней Ае Асагири, которая нигде не может укрыться от постоянного абьюза? В школе она является объектом для издевательств одноклассников, да и дома ей тоже нет покоя. Там над ней постоянно измывается старший брат. В какой-то момент, устав от такой жизни, Ая подумывает, что лучше было бы умереть.
Тогда-то Ая и наткнулась случайно на один любопытный сайт под названием "Сайт волшебниц”. Там Ая получила волшебную палочку и стала девочкой-волшебницей. Но магия её довольно специфическая: каждый раз, как только кто-то начинает её обижать, Ая может лишь сделать взмах, и эти люди переносятся на край света, где погибают в страшных муках. Но Ая не хочет никого убивать и мучается от угрызений совести. Впрочем, скоро она узнаёт, что не одинока, и что её одноклассница тоже обрела силу с помощью того странного вебсайта.

Доп. информация:


Релиз GSGroup

Страна: Япония
Студия: Production doA
Продолжительность: ТВ (12 эп.) 00:24:00
Перевод: Любительский одноголосый (Persona99)
Субтитры: Нет
Качество: HDTVRip 720p [Leopard-Raws]
Формат видео: mp4
Видео: AVC 1280x720, 23.976 fps, ~1942 Kbps, 8 bits.
Аудио 1: AAC 48 КГц; 192 Кбит/сек , 2.0 Язык Русский (в составе контейнера) ; Озвучка: Любительский одноголосый (Persona99)
Аудио 2: AAC 48 КГц; 192 Кбит/сек , 2.0 оригинал (Японский)
Семпл

Код: Выделить всё
General
Complete name                            : Mahou Shoujo SiteMahou Shoujo Site 01 [Persona99](1280x720 x264 AAC).rus.jpn.mp4
Format                                   : MPEG-4
Format profile                           : Base Media
Codec ID                                 : isom
File size                                : 408 MiB
Duration                                 : 24mn 31s
Overall bit rate mode                    : Variable
Overall bit rate                         : 2 324 Kbps
Encoded date                             : UTC 2018-06-21 16:20:59
Tagged date                              : UTC 2018-06-21 16:20:59
Writing application                      : Yamb 2.1.0.0 [http://yamb.unite-video.com]

Video
ID                                       : 1
Format                                   : AVC
Format/Info                              : Advanced Video Codec
Format profile                           : High@L4.1
Format settings, CABAC                   : Yes
Format settings, ReFrames                : 4 frames
Codec ID                                 : avc1
Codec ID/Info                            : Advanced Video Coding
Duration                                 : 24mn 26s
Bit rate                                 : 1 942 Kbps
Maximum bit rate                         : 16.1 Mbps
Width                                    : 1 280 pixels
Height                                   : 720 pixels
Display aspect ratio                     : 16:9
Frame rate mode                          : Constant
Frame rate                               : 23.976 fps
Color space                              : YUV
Chroma subsampling                       : 4:2:0
Bit depth                                : 8 bits
Scan type                                : Progressive
Bits/(Pixel*Frame)                       : 0.088
Stream size                              : 340 MiB (83%)
Title                                    : [Leopard-Raws]
Writing library                          : x264 core 129 r2245+729M 1a52e03
Encoding settings                        : cabac=1 / ref=4 / deblock=1:1:-1 / analyse=0x3:0x113 / me=umh / subme=9 / psy=1 / fade_compensate=0.00 / psy_rd=1.00:0.00 / mixed_ref=1 / me_range=24 / chroma_me=1 / trellis=2 / 8x8dct=1 / cqm=0 / deadzone=21,11 / fast_pskip=1 / chroma_qp_offset=-2 / threads=8 / lookahead_threads=1 / sliced_threads=0 / nr=0 / decimate=1 / interlaced=0 / bluray_compat=0 / constrained_intra=0 / fgo=0 / bframes=9 / b_pyramid=2 / b_adapt=2 / b_bias=0 / direct=1 / weightb=1 / open_gop=0 / weightp=2 / keyint=240 / keyint_min=24 / scenecut=40 / intra_refresh=0 / rc=crf / mbtree=0 / crf=18.5 / qcomp=0.72 / qpmin=0 / qpmax=69 / qpstep=4 / ip_ratio=1.40 / pb_ratio=1.30 / aq=1:0.85
Encoded date                             : UTC 2018-04-07 06:52:05
Tagged date                              : UTC 2018-06-21 16:21:05
Color range                              : Limited
Color primaries                          : BT.709
Transfer characteristics                 : BT.709
Matrix coefficients                      : BT.709

Audio #1
ID                                       : 2
Format                                   : AAC
Format/Info                              : Advanced Audio Codec
Format profile                           : LC
Codec ID                                 : 40
Duration                                 : 24mn 31s
Bit rate mode                            : Variable
Bit rate                                 : 192 Kbps
Maximum bit rate                         : 204 Kbps
Channel(s)                               : 2 channels
Channel positions                        : Front: L R
Sampling rate                            : 48.0 KHz
Compression mode                         : Lossy
Stream size                              : 33.7 MiB (8%)
Title                                    : Persona99
Language                                 : Russian
Encoded date                             : UTC 2018-06-21 16:21:03
Tagged date                              : UTC 2018-06-21 16:21:05

Audio #2
ID                                       : 3
Format                                   : AAC
Format/Info                              : Advanced Audio Codec
Format profile                           : LC
Codec ID                                 : 40
Duration                                 : 24mn 27s
Bit rate mode                            : Variable
Bit rate                                 : 192 Kbps
Maximum bit rate                         : 253 Kbps
Channel(s)                               : 2 channels
Channel positions                        : Front: L R
Sampling rate                            : 48.0 KHz
Compression mode                         : Lossy
Stream size                              : 33.6 MiB (8%)
Language                                 : Japanese
Encoded date                             : UTC 2018-06-21 16:21:05
Tagged date                              : UTC 2018-06-21 16:21:05
01. Magical Girl Site
02. Tempest
03. The Princess and the Poison Apple
04. The Successor and the Transfer Student
05. Revenge and Resolve
06. Fake
07. Joint Strategy
08. Last Summer
09. God Won't Abandon Me
10. Breaking
11. The Rebel Girls
12. We Are ...

 
Не забывайте говорить Спасибо. Не уходите с раздачи!   
Торрент: Зарегистрирован [08 июл 2018, 14:50] Для скачивания .torrent
необходима регистрация
Или скачать с помощью
MediaGet
Статус:
Проверен
 
.torrent скачан: 0 раз
Хэш: 108eb6f55d27ec3b7440604a00b29d02791b0d9c
Размер: 5.11 ГБ (5 482 076 905 байт)
Стать Автором раздачи
 
 
Раздал: 100 ГБ
Скачал: 0 байт
Ратио: Seed.
Сообщения: 100738
Зарегистрирован: 09 апр 2015, 22:31


  • Похожие торренты
    Ответы
    Просмотры
    Последнее сообщение

Вернуться в Аниме (Основной)

Ресурс не предоставляет электронные версии произведений, а занимается лишь коллекционированием и каталогизацией ссылок, присылаемых и публикуемых на форуме нашими читателями. Если вы являетесь правообладателем какого-либо представленного материала и не желаете чтобы ссылка на него находилась в нашем каталоге, свяжитесь с нами и мы незамедлительно удалим её. Файлы для обмена на трекере предоставлены пользователями сайта, и администрация не несёт ответственности за их содержание. Просьба не заливать файлы, защищенные авторскими правами, а также файлы нелегального содержания!
cron