Первые (2017) WEB-DLRip от R.G.Resident | Line

 
 Статистика раздачи 
Размер: 1.37 ГБ   |  Зарегистрирован: 08 июл 2018, 12:46   |   .torrent скачан: 0 раз
Сидеров: 1  [ 0 байт/сек ]     Личеров: 0  [ 0 байт/сек ]  
  

Первые (2017) WEB-DLRip от R.G.Resident | Line

Сообщение graf_t » 08 июл 2018, 13:08

Информация о фильме
Название: Первые
Год выпуска: 2017
Страна: Россия
Жанр: драма, приключения, история

Перевод: Не требуется [Русский] (Line)
Примечание: Релиз без рекламы
Продолжительность: 01:36:15

Режиссер: Дмитрий Суворов
В ролях: Наиль Абдрахманов (Василий Прончищев), Алина Ланина (Татьяна Прончищева), Евгений Ткачук (Семён Челюскин), Валерий Баринов (Витус Беринг), Данила Якушев (боцман), Сергей Рост (Фарварсон), Сергей Терещенко, Александр Дьяченко (Пётр I), Егор Тимцуник


Описание:
Лента расскажет о подвиге и любви супругов Прончищевых - полярных исследователей Арктики в составе Ленско-Енисейского отряда Великой Северной экспедиции.

Рейтинг:


Качество: WEB-DLRip
Формат: AVI
Видео: XviD, 720x320 (2.25:1), 1803 kbps, 24 fps, 0,326 bpp
Аудио: AC3 / 2.0 / 48 kHz / 224 kbps /
Сэмпл


Релиз от:


General
Complete name : F:Pervye.2017.WEB-DLRip.Line.R.G.Resident.avi
Format : AVI
Format/Info : Audio Video Interleave
File size : 1.37 GiB
Duration : 1 h 36 min
Overall bit rate : 2 037 kb/s
Writing application : VirtualDubModRus 1.5.10.2 (build 2542/release)
Writing library : VirtualDubMod build 2542/release

Video
ID : 0
Format : MPEG-4 Visual
Format profile : Advanced Simple@L5
Format settings, BVOP : 1
Format settings, QPel : No
Format settings, GMC : No warppoints
Format settings, Matrix : Custom
Codec ID : XVID
Codec ID/Hint : XviD
Duration : 1 h 36 min
Bit rate : 1 804 kb/s
Width : 720 pixels
Height : 320 pixels
Display aspect ratio : 2.25:1
Frame rate : 24.000 FPS
Color space : YUV
Chroma subsampling : 4:2:0
Bit depth : 8 bits
Scan type : Progressive
Compression mode : Lossy
Bits/(Pixel*Frame) : 0.326
Stream size : 1.21 GiB (89%)
Writing library : XviD 73

Audio
ID : 1
Format : AC-3
Format/Info : Audio Coding 3
Mode extension : CM (complete main)
Format settings, Endianness : Big
Codec ID : 2000
Duration : 1 h 36 min
Bit rate mode : Constant
Bit rate : 224 kb/s
Channel(s) : 2 channels
Channel positions : Front: L R
Sampling rate : 48.0 kHz
Frame rate : 31.250 FPS (1536 spf)
Compression mode : Lossy
Stream size : 154 MiB (11%)
Alignment : Split accross interleaves
Interleave, duration : 42 ms (1.00 video frame)
Interleave, preload duration : 500 ms
 
Не забывайте говорить Спасибо. Не уходите с раздачи!   
Торрент: Зарегистрирован [08 июл 2018, 12:46] Скачать торрент
Скачать торрент
[ Размер 14.68 КБ / Просмотров 1 ]
Статус:
Проверен
 
.torrent скачан: 0 раз
Хэш: 6aca85bec331e99d0bf01672e076994f4429f7b7
Размер: 1.37 ГБ (1 470 578 688 байт)
Стать Автором раздачи
 
 
Раздал: 100 ГБ
Скачал: 0 байт
Ратио: Seed.
Сообщения: 58525
Зарегистрирован: 31 мар 2015, 18:04


  • Похожие торренты
    Ответы
    Просмотры
    Последнее сообщение

Вернуться в Отечественное кино

Ресурс не предоставляет электронные версии произведений, а занимается лишь коллекционированием и каталогизацией ссылок, присылаемых и публикуемых на форуме нашими читателями. Если вы являетесь правообладателем какого-либо представленного материала и не желаете чтобы ссылка на него находилась в нашем каталоге, свяжитесь с нами и мы незамедлительно удалим её. Файлы для обмена на трекере предоставлены пользователями сайта, и администрация не несёт ответственности за их содержание. Просьба не заливать файлы, защищенные авторскими правами, а также файлы нелегального содержания!
cron