Неизвестный АэС (Александр Капков) [2006, историко-биографический, TVRip]

 
 Статистика раздачи 
Размер: 437.92 МБ   |  Зарегистрирован: 07 июл 2018, 18:51   |   .torrent скачан: 0 раз
Сидеров: 1  [ 0 байт/сек ]     Личеров: 0  [ 0 байт/сек ]  
  

Неизвестный АэС (Александр Капков) [2006, историко-биографический, TVRip]

Сообщение Nakazhu » 07 июл 2018, 22:07

Неизвестный АэС
Дата/Год выпуска: 2006
Страна
: Россия
Жанр: историко-биографический
Продолжительность: 00:39:02
Перевод: Не требуется
Русские субтитры: нет
Оригинальная аудиодорожка: русский
Режиссер: Александр Капков
Телеканал: Россия К
Описание: Неизвестные подробности, не опубликованные ранее документы и факты об авиаконструкторе Александре Сергеевиче Яковлеве. История создания самолетов "Як", которые воевали во время Второй мировой войны и были признаны лучшими самолетами того времени. Генерал-полковник авиации Александр Яковлев был академиком, генеральным конструктором ОКБ, лауреатом Ленинской и шести Государственных премий, дважды Героем Социалистического Труда. Самолеты его конструкции славились легкостью и элегантностью и ставили мировые рекорды.
качество: TVRip
формат: AVI
Видео: MPEG4, XviD, 704x400 (16:9), 25.000 fps, 1 431 Kbps (0.203 bit/pixel)
Аудио: MP3, 48.0 KHz, 2 ch, 128 Kbps, CBR
Код: Выделить всё
General
Complete name                            : G:\Неизвестный АэС.avi
Format                                   : AVI
Format/Info                              : Audio Video Interleave
File size                                : 438 MiB
Duration                                 : 39mn 1s
Overall bit rate                         : 1 569 Kbps
Video
ID                                       : 0
Format                                   : MPEG-4 Visual
Format profile                           : Advanced Simple@L5
Format settings, BVOP                    : 2
Format settings, QPel                    : No
Format settings, GMC                     : No warppoints
Format settings, Matrix                  : Default (H.263)
Codec ID                                 : XVID
Codec ID/Hint                            : XviD
Duration                                 : 39mn 1s
Bit rate                                 : 1 431 Kbps
Width                                    : 704 pixels
Height                                   : 400 pixels
Display aspect ratio                     : 16:9
Frame rate                               : 25.000 fps
Color space                              : YUV
Chroma subsampling                       : 4:2:0
Bit depth                                : 8 bits
Scan type                                : Progressive
Compression mode                         : Lossy
Bits/(Pixel*Frame)                       : 0.203
Stream size                              : 399 MiB (91%)
Writing library                          : XviD 1.2.1 (UTC 2008-12-04)
Audio
ID                                       : 1
Format                                   : MPEG Audio
Format version                           : Version 1
Format profile                           : Layer 3
Codec ID                                 : 55
Codec ID/Hint                            : MP3
Duration                                 : 39mn 1s
Bit rate mode                            : Constant
Bit rate                                 : 128 Kbps
Channel(s)                               : 2 channels
Sampling rate                            : 48.0 KHz
Compression mode                         : Lossy
Stream size                              : 35.7 MiB (8%)
Alignment                                : Aligned on interleaves
Interleave, duration                     : 40 ms (1.00 video frame)
Interleave, preload duration             : 504 ms
Writing library                          : LAME3.99r
Encoding settings                        : -m s -V 4 -q 2 -lowpass 17 -b 128
 
Не забывайте говорить Спасибо. Не уходите с раздачи!   
Торрент: Зарегистрирован [07 июл 2018, 18:51] Скачать торрент
Скачать торрент
[ Размер 17.56 КБ / Просмотров 1 ]
Статус:
Проверен
 
.torrent скачан: 0 раз
Хэш: 25b3586a0eaa27e9a618a195ea48d022aebe2564
Размер: 437.92 МБ (459 191 978 байт)
Стать Автором раздачи
 
 
Раздал: 0 байт
Скачал: 0 байт
Ратио: Inf.
Сообщения: 487468
Зарегистрирован: 17 апр 2014, 13:57


  • Похожие торренты
    Ответы
    Просмотры
    Последнее сообщение

Вернуться в Документальные фильмы и телепередачи

Ресурс не предоставляет электронные версии произведений, а занимается лишь коллекционированием и каталогизацией ссылок, присылаемых и публикуемых на форуме нашими читателями. Если вы являетесь правообладателем какого-либо представленного материала и не желаете чтобы ссылка на него находилась в нашем каталоге, свяжитесь с нами и мы незамедлительно удалим её. Файлы для обмена на трекере предоставлены пользователями сайта, и администрация не несёт ответственности за их содержание. Просьба не заливать файлы, защищенные авторскими правами, а также файлы нелегального содержания!
cron