Прогулка по Уфе (Алексей Костин) [2011, путешествия и туризм, SATRip]

 
 Статистика раздачи 
Размер: 499.79 МБ   |  Зарегистрирован: 07 июл 2018, 17:57   |   .torrent скачан: 0 раз
Сидеров: 1  [ 0 байт/сек ]     Личеров: 0  [ 0 байт/сек ]  
  

Прогулка по Уфе (Алексей Костин) [2011, путешествия и туризм, SATRip]

Сообщение Nakazhu » 07 июл 2018, 21:06

Прогулка по Уфе
Дата/Год выпуска: 2011
Страна
: Россия
Жанр: путешествия и туризм
Продолжительность: 00:45:20
Перевод: Не требуется
Русские субтитры: нет
Оригинальная аудиодорожка: русский
Режиссер: Алексей Костин
Телеканал: RTG TV
Описание: Уфа – город с древней и богатой историей. В нем чувствуется национальный колорит, своеобразие столицы региона – республики Башкортостан, которая находится на границе Европы и Азии. Город был основан как крепость в 16-м веке, он защищал восточные границы страны и местное население от набегов степных племен. Находясь на самом стыке двух цивилизаций - Западной и Восточной - город выступал как связующее звено между ними.Сегодняшняя Уфа - крупный мегаполис. Город-миллионер. Один из ведущих экономических, научных и культурных центров России. Ведущая Надежда Лебедева осмотрела все достопримечательности города, узнала, как была найдена коллекция «Золото сарматов», чем уникален хазарский мамонт и как выглядит «посланец Вселенной» Стерлитамакский метеорит.
качество: SATRip
формат: AVI
Видео: MPEG4, XviD, 720x560 (1.286), 25.000 fps, 1 400 Kbps (0.139 bit/pixel)
Аудио: MP3, 48.0 KHz, 2 ch, 128 Kbps, CBR
Код: Выделить всё
General
Complete name                            : G:\Прогулка по Уфе.avi
Format                                   : AVI
Format/Info                              : Audio Video Interleave
File size                                : 500 MiB
Duration                                 : 45mn 20s
Overall bit rate                         : 1 541 Kbps
Writing library                          : TMPGEnc 4.0 XPress Version. 4.7.7.307
Video
ID                                       : 0
Format                                   : MPEG-4 Visual
Format profile                           : Simple@L1
Format settings, BVOP                    : No
Format settings, QPel                    : No
Format settings, GMC                     : No warppoints
Format settings, Matrix                  : Default (H.263)
Codec ID                                 : XVID
Codec ID/Hint                            : XviD
Duration                                 : 45mn 20s
Bit rate                                 : 1 400 Kbps
Width                                    : 720 pixels
Height                                   : 560 pixels
Display aspect ratio                     : 1.286
Frame rate                               : 25.000 fps
Color space                              : YUV
Chroma subsampling                       : 4:2:0
Bit depth                                : 8 bits
Scan type                                : Progressive
Compression mode                         : Lossy
Bits/(Pixel*Frame)                       : 0.139
Stream size                              : 454 MiB (91%)
Writing library                          : Lavc52.92.0
Audio
ID                                       : 1
Format                                   : MPEG Audio
Format version                           : Version 1
Format profile                           : Layer 3
Mode                                     : Joint stereo
Codec ID                                 : 55
Codec ID/Hint                            : MP3
Duration                                 : 45mn 20s
Bit rate mode                            : Constant
Bit rate                                 : 128 Kbps
Channel(s)                               : 2 channels
Sampling rate                            : 48.0 KHz
Compression mode                         : Lossy
Stream size                              : 41.5 MiB (8%)
Alignment                                : Aligned on interleaves
Interleave, duration                     : 40 ms (1.01 video frame)
Interleave, preload duration             : 384 ms
 
Не забывайте говорить Спасибо. Не уходите с раздачи!   
Торрент: Зарегистрирован [07 июл 2018, 17:57] Для скачивания .torrent
необходима регистрация
Или скачать с помощью
MediaGet
Статус:
Проверен
 
.torrent скачан: 0 раз
Хэш: e1532a40e6f15580ea5bc4a5960d6ce902cc9906
Размер: 499.79 МБ (524 064 438 байт)
Стать Автором раздачи
 
 
Раздал: 0 байт
Скачал: 0 байт
Ратио: Inf.
Сообщения: 486963
Зарегистрирован: 17 апр 2014, 13:57


  • Похожие торренты
    Ответы
    Просмотры
    Последнее сообщение

Вернуться в Документальные фильмы и телепередачи

Ресурс не предоставляет электронные версии произведений, а занимается лишь коллекционированием и каталогизацией ссылок, присылаемых и публикуемых на форуме нашими читателями. Если вы являетесь правообладателем какого-либо представленного материала и не желаете чтобы ссылка на него находилась в нашем каталоге, свяжитесь с нами и мы незамедлительно удалим её. Файлы для обмена на трекере предоставлены пользователями сайта, и администрация не несёт ответственности за их содержание. Просьба не заливать файлы, защищенные авторскими правами, а также файлы нелегального содержания!
cron